<?xml version="1.0" standalone="no"?>
<!DOCTYPE svg PUBLIC "-//W3C//DTD SVG 1.1//EN" "http://www.w3.org/Graphics/SVG/1.1/DTD/svg11.dtd">
<svg xmlns="http://www.w3.org/2000/svg">
<metadata>Copyright (C) 2023 by original authors @ fontello.com</metadata>
<defs>
<font id="pbminfotech-base-icons" horiz-adv-x="1000" >
<font-face font-family="pbminfotech-base-icons" font-weight="400" font-stretch="normal" units-per-em="1000" ascent="850" descent="-150" />
<missing-glyph horiz-adv-x="1000" />
<glyph glyph-name="d1" unicode="&#xe800;" d="M714 100q0 15-10 25t-25 11-25-11-11-25 11-25 25-11 25 11 10 25z m143 0q0 15-10 25t-26 11-25-11-10-25 10-25 25-11 26 11 10 25z m72 125v-179q0-22-16-37t-38-16h-821q-23 0-38 16t-16 37v179q0 22 16 38t38 16h259l75-76q33-32 76-32t76 32l76 76h259q22 0 38-16t16-38z m-182 318q10-23-8-39l-250-250q-10-11-25-11t-25 11l-250 250q-17 16-8 39 10 21 33 21h143v250q0 15 11 25t25 11h143q14 0 25-11t10-25v-250h143q24 0 33-21z" horiz-adv-x="928.6" />

<glyph glyph-name="chat" unicode="&#xe801;" d="M290 240l350 0q2 0 6 2l4 0 0-92q0-40-29-70t-71-30l-250 0-150-150 0 150-50 0q-40 0-70 30t-30 70l0 300q0 42 30 71t70 29l190 0 0-310z m610 560q42 0 71-29t29-71l0-300q0-40-29-70t-71-30l-50 0 0-150-150 150-350 0 0 400q0 42 30 71t70 29l450 0z" horiz-adv-x="1000" />

<glyph glyph-name="calendar" unicode="&#xe802;" d="M800 700q42 0 71-29t29-71l0-600q0-40-29-70t-71-30l-700 0q-40 0-70 30t-30 70l0 600q0 42 30 71t70 29l46 0 0-100 160 0 0 100 290 0 0-100 160 0 0 100 44 0z m0-700l0 400-700 0 0-400 700 0z m-540 800l0-170-70 0 0 170 70 0z m450 0l0-170-70 0 0 170 70 0z" horiz-adv-x="900" />

<glyph glyph-name="heart" unicode="&#xe803;" d="M500-79q-14 0-25 10l-348 336q-5 5-15 15t-31 37-38 54-30 67-13 77q0 123 71 192t196 70q34 0 70-12t67-33 54-38 42-38q20 20 42 38t54 38 67 33 70 12q125 0 196-70t71-192q0-123-128-251l-347-335q-10-10-25-10z" horiz-adv-x="1000" />

<glyph glyph-name="link" unicode="&#xe804;" d="M529 417c-11-11-11-29 0-40 45-45 45-119 0-164l-239-239c-45-45-119-45-164 0l-36 36c-45 46-45 119 0 165l238 238c11 11 11 28 0 39s-28 11-39 0l-238-238c-33-32-51-76-51-122 0-46 18-89 51-122l35-35c34-34 78-51 122-51s88 17 122 51l238 238c67 67 67 176 0 244-11 11-28 11-39 0z m421 313l-36 35c-67 67-177 67-244 0l-238-238c-67-67-67-176 0-243 11-11 29-11 40 0s11 28 0 39c-46 45-46 119 0 165l238 238c45 45 119 45 164 0l36-36c46-45 46-119 0-165l-238-238c-11-11-11-28 0-39 5-6 13-9 20-9s14 3 19 9l239 238c32 32 50 76 50 122 0 46-18 89-50 122z" horiz-adv-x="1000" />

<glyph glyph-name="quote" unicode="&#xe805;" d="M0-62l0 437q0 71 15 129t38 97 61 67 72 45 83 28 82 14 81 7l37-176q-49-9-81-20t-66-31-48-53-10-77l131 0 0-467-395 0z m529 0l0 437q0 71 16 129t38 97 61 67 72 45 83 28 81 14 81 7l39-176q-51-9-83-20t-65-31-47-53-12-77l131 0 0-467-395 0z" horiz-adv-x="1000" />

<glyph glyph-name="right-open" unicode="&#xe806;" d="M618 361l-414-415q-11-10-25-10t-25 10l-93 93q-11 11-11 25t11 25l296 297-296 296q-11 11-11 25t11 25l93 93q10 11 25 11t25-11l414-414q10-11 10-25t-10-25z" horiz-adv-x="714.3" />

<glyph glyph-name="left-open" unicode="&#xe807;" d="M654 682l-297-296 297-297q10-10 10-25t-10-25l-93-93q-11-10-25-10t-25 10l-414 415q-11 10-11 25t11 25l414 414q10 11 25 11t25-11l93-93q10-10 10-25t-10-25z" horiz-adv-x="714.3" />

<glyph glyph-name="user" unicode="&#xe808;" d="M714 69q0-60-35-104t-84-44h-476q-49 0-84 44t-35 104q0 48 5 90t17 85 33 73 52 50 76 19q73-72 174-72t175 72q42 0 75-19t52-50 33-73 18-85 4-90z m-143 495q0-88-62-151t-152-63-151 63-63 151 63 152 151 63 152-63 62-152z" horiz-adv-x="714.3" />

<glyph glyph-name="chat-1" unicode="&#xe809;" d="M786 421q0-77-53-143t-143-104-197-38q-48 0-98 9-70-49-155-72-21-5-48-9h-2q-6 0-12 5t-6 12q-1 1-1 3t1 4 1 3l1 3t2 3 2 3 3 3 2 2q3 3 13 14t15 16 12 17 14 21 11 25q-69 40-108 98t-40 125q0 78 53 144t143 104 197 38 197-38 143-104 53-144z m214-142q0-67-40-126t-108-98q5-14 11-25t14-21 13-16 14-17 13-14q0 0 2-2t3-3 2-3 2-3l1-3t1-3 1-4-1-3q-2-8-7-13t-12-4q-28 4-48 9-86 23-156 72-50-9-98-9-151 0-263 74 32-3 49-3 90 0 172 25t148 72q69 52 107 119t37 141q0 43-13 85 72-39 114-99t42-128z" horiz-adv-x="1000" />

<glyph glyph-name="folder-open" unicode="&#xe80a;" d="M1049 319q0-17-18-37l-187-221q-24-28-67-48t-81-20h-607q-19 0-33 7t-15 24q0 17 17 37l188 221q24 28 67 48t80 20h607q19 0 34-7t15-24z m-192 192v-90h-464q-53 0-110-26t-92-67l-188-221-2-3q0 2-1 7t0 7v536q0 51 37 88t88 37h179q51 0 88-37t37-88v-18h303q52 0 88-37t37-88z" horiz-adv-x="1071.4" />

<glyph glyph-name="tags" unicode="&#xe80b;" d="M250 600q0 30-21 51t-50 20-51-20-21-51 21-50 51-21 50 21 21 50z m595-321q0-30-20-51l-274-274q-22-21-51-21-30 0-50 21l-399 399q-21 21-36 57t-15 65v232q0 29 21 50t50 22h233q29 0 65-15t57-36l399-399q20-21 20-50z m215 0q0-30-21-51l-274-274q-22-21-51-21-20 0-33 8t-29 25l262 262q21 21 21 51 0 29-21 50l-399 399q-21 21-57 36t-65 15h125q29 0 65-15t57-36l399-399q21-21 21-50z" horiz-adv-x="1071.4" />

<glyph glyph-name="tumbler" unicode="&#xe80c;" d="M413 49l0 108q-52-35-102-35-21 0-45 11t-27 30q-10 17-10 76l0 171 156 0 0 104-156 0 0 175-93 0q-12-65-23-91t-45-54q-34-29-68-39l0-95 73 0 0-236q0-75 46-116 19-19 59-35 47-11 81-11 85 0 154 37z" horiz-adv-x="413" />

<glyph glyph-name="search-1" unicode="&#xe80d;" d="M994-85l-291 291c56 68 89 154 89 248 0 218-178 396-396 396s-396-178-396-396 178-396 396-396c94 0 181 34 249 89l290-291c8-8 21-8 29 0l30 30c8 8 8 21 0 29z m-598 227c-172 0-313 140-313 312s141 313 313 313 312-140 312-313-140-312-312-312z" horiz-adv-x="1000" />

<glyph glyph-name="location" unicode="&#xe80e;" d="M429 493q0 59-42 101t-101 42-101-42-42-101 42-101 101-42 101 42 42 101z m142 0q0-61-18-100l-203-432q-9-18-27-29t-37-11-38 11-26 29l-204 432q-18 39-18 100 0 118 84 202t202 84 202-84 83-202z" horiz-adv-x="571.4" />

<glyph glyph-name="right-big" unicode="&#xe80f;" d="M821 314q0-30-20-50l-363-364q-22-20-51-20-29 0-50 20l-42 42q-22 21-22 51t22 51l163 163h-393q-29 0-47 21t-18 51v71q0 30 18 51t47 20h393l-163 165q-22 20-22 50t22 50l42 42q21 21 50 21 29 0 51-21l363-363q20-20 20-51z" horiz-adv-x="857.1" />

<glyph glyph-name="left-quote" unicode="&#xe810;" d="M320 389c-25 7-49 11-73 11-37 0-68-9-92-19 23 85 79 230 189 247 10 1 19 9 21 19l25 86c2 7 0 15-4 21s-11 11-18 12c-8 1-17 2-25 2-132 0-264-139-319-337-33-116-42-291 38-401 45-61 110-94 194-98 1 0 1 0 1 0 104 0 196 70 224 171 17 59 9 122-21 176-30 54-80 93-140 110z m650-110c-30 54-80 93-140 110-24 7-49 11-73 11-37 0-68-9-92-19 23 85 79 230 189 247 10 1 19 9 22 19l24 86c2 7 0 15-4 21-4 7-11 11-18 12-8 1-16 2-25 2-132 0-264-139-319-337-32-116-42-291 38-401 45-61 110-94 194-98 1 0 1 0 1 0 104 0 196 70 224 171 17 59 10 122-21 176z" horiz-adv-x="1000" />

<glyph glyph-name="down-open-big" unicode="&#xe811;" d="M63 570l370-356 372 356q22 26 48 0 26-22 0-48l-396-392q-22-22-48 0l-396 392q-26 26 0 48 24 24 50 0z" horiz-adv-x="866" />

<glyph glyph-name="up-open-big" unicode="&#xe812;" d="M804 130l-372 358-370-358q-26-22-50 0-24 24 0 50l396 390q26 26 48 0l396-390q24-26 0-50-26-22-48 0z" horiz-adv-x="864" />

<glyph glyph-name="cancel" unicode="&#xe813;" d="M452 194q18-18 18-43t-18-43q-18-16-43-16t-43 16l-132 152-132-152q-18-16-43-16t-43 16q-16 18-16 43t16 43l138 156-138 158q-16 18-16 43t16 43q18 16 43 16t43-16l132-152 132 152q18 16 43 16t43-16q18-18 18-43t-18-43l-138-158z" horiz-adv-x="470" />

<glyph glyph-name="angle-right" unicode="&#xe814;" d="M332 314q0-7-5-12l-261-261q-5-5-12-5t-13 5l-28 28q-6 6-6 13t6 13l219 219-219 220q-6 5-6 12t6 13l28 28q5 6 13 6t12-6l261-260q5-5 5-13z" horiz-adv-x="357.1" />

<glyph glyph-name="arrow-right" unicode="&#xe815;" d="M924 352l-433-433-41 42 361 361h-752v59h752l-361 362 41 41 433-432z" horiz-adv-x="1000" />

<glyph glyph-name="aside" unicode="&#xe816;" d="M819 638q16-16 27-42t11-50v-642q0-23-15-38t-38-16h-750q-23 0-38 16t-16 38v892q0 23 16 38t38 16h500q22 0 49-11t42-27z m-248 136v-210h210q-5 17-12 23l-175 175q-6 7-23 12z m215-853v572h-232q-23 0-38 16t-16 37v233h-429v-858h715z m-572 483q0 7 5 12t13 5h393q8 0 13-5t5-12v-36q0-8-5-13t-13-5h-393q-8 0-13 5t-5 13v36z m411-125q8 0 13-5t5-13v-36q0-8-5-13t-13-5h-393q-8 0-13 5t-5 13v36q0 8 5 13t13 5h393z m0-143q8 0 13-5t5-13v-36q0-8-5-13t-13-5h-393q-8 0-13 5t-5 13v36q0 8 5 13t13 5h393z" horiz-adv-x="857.1" />

<glyph glyph-name="music" unicode="&#xe817;" d="M857 725v-625q0-28-19-50t-48-33-58-18-53-6-54 6-58 18-48 33-19 50 19 50 48 33 58 18 54 6q58 0 107-22v300l-429-132v-396q0-28-19-50t-48-33-58-18-53-6-54 6-58 18-48 33-19 50 19 50 48 34 58 17 54 6q58 0 107-21v539q0 17 10 32t28 20l464 142q7 3 16 3 22 0 38-16t15-38z" horiz-adv-x="857.1" />

<glyph glyph-name="plus" unicode="&#xe818;" d="M550 400q30 0 30-50t-30-50l-210 0 0-210q0-30-50-30t-50 30l0 210-210 0q-30 0-30 50t30 50l210 0 0 210q0 30 50 30t50-30l0-210 210 0z" horiz-adv-x="580" />

<glyph glyph-name="videocam" unicode="&#xe819;" d="M1000 654v-608q0-23-22-32-7-3-14-3-15 0-25 10l-225 225v-92q0-67-47-114t-113-47h-393q-67 0-114 47t-47 114v392q0 67 47 114t114 47h393q66 0 113-47t47-114v-92l225 225q10 10 25 10 7 0 14-2 22-10 22-33z" horiz-adv-x="1000" />

<glyph glyph-name="link-1" unicode="&#xe81a;" d="M813 171q0 23-16 38l-116 116q-16 16-38 16-24 0-40-18 1-1 10-10t12-12 9-11 7-14 2-15q0-23-16-38t-38-16q-8 0-15 2t-14 7-11 9-12 12-10 10q-19-17-19-40 0-23 16-38l115-116q15-15 38-15 22 0 38 15l82 81q16 16 16 37z m-393 394q0 22-15 38l-115 115q-16 16-38 16-22 0-38-15l-82-82q-16-15-16-37 0-22 16-38l116-116q15-15 38-15 23 0 40 17-2 2-11 11t-12 12-8 10-7 14-2 16q0 22 15 38t38 15q9 0 16-2t14-7 11-8 12-12 10-11q18 17 18 41z m500-394q0-66-48-113l-82-81q-46-47-113-47-68 0-114 48l-115 115q-46 47-46 114 0 68 49 116l-49 49q-48-49-116-49-67 0-114 47l-116 116q-47 47-47 114t47 113l82 82q47 46 114 46 67 0 114-47l115-116q46-46 46-113 0-69-49-117l49-49q48 49 116 49 67 0 114-47l116-116q47-47 47-114z" horiz-adv-x="928.6" />

<glyph glyph-name="gallery" unicode="&#xe81b;" d="M856 518l-100 0-124 150-214-150-180 0q-52 0-90-39t-38-91l0-160-108 296q-10 38 22 52l680 248q36 10 50-24z m106-90q16 0 27-12t11-28l0-472q0-16-11-28t-27-12l-724 0q-16 0-27 12t-11 28l0 472q0 16 11 28t27 12l724 0z m-56-452l0 162-72 160-166-60-130-132-138 170-92-214 0-86 598 0z" horiz-adv-x="1000" />

<glyph glyph-name="right-small" unicode="&#xe81c;" d="M328 595q15 15 36 15t37-15l245-245-245-245q-15-15-36-15-22 0-37 15t-15 37 15 37l120 119-395 0q-22 0-37 15t-16 37 16 37 37 16l395 0-120 118q-15 15-15 37t15 37z" horiz-adv-x="646" />

<glyph glyph-name="left-small" unicode="&#xe81d;" d="M595 403q21 0 36-16t15-37-15-37-36-15l-395 0 119-119q15-15 15-37t-15-37-36-15q-23 0-38 15l-245 245 245 245q15 15 37 15t37-15 15-37-15-37l-119-118 395 0z" horiz-adv-x="646" />

<glyph glyph-name="angle-left" unicode="&#xe81e;" d="M350 546q0-7-6-12l-219-220 219-219q6-6 6-13t-6-13l-28-28q-5-5-12-5t-13 5l-260 261q-6 5-6 12t6 13l260 260q5 6 13 6t12-6l28-28q6-5 6-13z" horiz-adv-x="357.1" />

<glyph glyph-name="arrow-left" unicode="&#xe81f;" d="M941 322h-752l361-361-41-42-433 433 433 432 41-41-361-362h752v-59z" horiz-adv-x="1000" />

<glyph glyph-name="form" unicode="&#xe820;" d="M380 490h-47v25h40c8 0 14 7 14 15 0 8-6 15-14 15h-40v25h47c9 0 15 7 15 15 0 8-6 14-15 14h-62c-8 0-14-6-14-14v-110c0-8 6-14 14-14h62c9 0 15 6 15 14 0 8-6 15-15 15z m-111 109c-8 0-14-6-14-14v-54l-35 61c-3 6-10 9-16 7-7-2-11-8-11-14v-110c0-8 6-14 14-14 8 0 15 6 15 14v54l35-61c2-5 7-7 12-7 2 0 3 0 4 0 7 2 11 8 11 14v110c0 8-7 14-15 14z m250 0c-8 2-16-3-18-11l-9-42-9 42c-1 7-7 11-14 11-7 0-13-4-14-11l-9-42-9 42c-2 8-10 13-18 11-8-2-13-9-11-17l23-110c2-7 8-11 15-11s13 4 14 11l9 42 9-42c1-7 7-11 14-11 7 0 13 4 15 11l23 110c1 8-4 15-11 17z m72-55c-20 7-21 11-21 17 0 4 6 9 16 9 10 0 17-5 17-9 0-8 6-15 14-15 9 0 15 7 15 15 0 21-20 38-46 38-25 0-45-17-45-38 0-30 26-40 40-45 20-7 22-11 22-17 0-4-7-9-17-9s-16 5-16 9c0 8-7 15-15 15-8 0-14-7-14-15 0-21 20-38 45-38 26 0 46 17 46 38 0 30-26 40-41 45z m11-164h-392c-8 0-14-6-14-14 0-8 6-15 14-15h392c8 0 14 7 14 15 0 8-6 14-14 14z m-94-78h-298c-8 0-14-6-14-15 0-8 6-14 14-14h298c8 0 15 6 15 14 0 9-7 15-15 15z m-63-78h-235c-8 0-14-7-14-15 0-8 6-15 14-15h235c8 0 15 7 15 15 0 8-7 15-15 15z m-329 503h94c9 0 15 6 15 14 0 9-6 15-15 15h-94c-16 0-30-13-30-30v-783c0-17 14-30 30-30h455c3 0 7 1 10 4l156 157c3 2 5 6 5 10h0v242l226 226c12 12 12 31 0 43l-22 22c-12 12-31 12-43 0l-99-98v207c0 51-41 93-93 93h-144c-6 18-23 31-43 31h-220c-20 0-37-13-43-31h-145c-51 0-92-42-92-93v-783c0-51 41-93 92-93h595c52 0 93 42 93 93v363c0 8-6 15-14 15-8 0-15-7-15-15v-363c0-35-28-64-64-64h-595c-35 0-63 29-63 64v783c0 35 28 63 63 63h142v-16c0-26 21-46 46-46h220c25 0 46 20 46 46v16h141c36 0 64-28 64-63v-236l-33-34v270c0 17-14 30-31 30h-94c-8 0-14-6-14-15 0-8 6-14 14-14h94c1 0 1-1 1-1v-298c0 0 0-1 0-1l-178-178c-6-6-11-13-15-21l-46-82h-263c-8 0-14-7-14-15 0-8 6-15 14-15h271 0c3 0 5 1 7 2l90 50c8 4 15 10 21 16l113 113v-198h-126c-17 0-30-14-30-31v-126h-440c0 0-1 0-1 1v783c0 0 1 1 1 1z m424 46l0 0c0-9-7-17-16-17h-220c-9 0-16 8-16 17v31c0 9 7 17 16 17h220c9 0 16-8 16-17v-31z m383-176c1 0 1 0 1 0 0 0 1 0 1 0l22-23c0 0 0-1 0-1l-23-23-23 24 22 23z m-359-403l-45-25 25 45c1 2 3 4 4 6l23-22c-2-2-5-3-7-4z m28 24l-24 24 312 311 23-24-311-311z m-7-150c0 1 1 1 1 1h106l-107-106v105z" horiz-adv-x="1000" />

<glyph glyph-name="method-draw-image" unicode="&#xe821;" d="M448 803c-12-7-19-19-19-32l0-803c0-21 17-37 37-37s36 16 36 37l0 739 542-323-398-257c-17-11-22-33-11-50 11-17 34-22 51-11l448 288c10 7 17 19 16 32 0 12-7 24-17 31l-648 385c-12 7-26 7-37 1z" horiz-adv-x="1450" />

<glyph glyph-name="marker" unicode="&#xe822;" d="M500 850c-187 0-339-152-339-339 0-76 44-190 139-360 65-116 129-215 132-219l47-71c5-7 13-11 21-11s17 4 21 11l47 71c3 4 67 102 132 219 95 170 139 284 139 360 0 187-152 339-339 339z m156-674c-65-116-128-212-131-216l-25-38-25 38c-3 4-67 101-131 216-88 158-132 270-132 335 0 159 129 288 288 288s289-129 289-288c0-65-45-177-133-335z m-156 525c-104 0-188-84-188-188s84-188 188-188 188 84 188 188-84 188-188 188z m0-326c-76 0-137 62-137 138s61 137 137 137c76 0 137-61 137-137s-61-138-137-138z" horiz-adv-x="1000" />

<glyph glyph-name="contact" unicode="&#xe823;" d="M977 714h-954c-13 0-23-10-23-23v-682c0-13 10-23 23-23h954c13 0 23 10 23 23v682c0 13-10 23-23 23z m-22-627l-282 281-32-32 304-304h-890l304 304-32 32-281-281v581h909v-581z m-46 581l-409-408-409 408h-45v-18l438-439c9-8 23-8 32 0l439 439v18h-46z" horiz-adv-x="1000" />

<glyph glyph-name="supermarket-1" unicode="&#xe824;" d="M322 264h0c0 0 0 0 0 0h532c13 0 24 9 28 21l117 411c2 8 1 18-5 25-5 8-14 12-23 12h-716l-21 94c-3 14-15 23-29 23h-176c-16 0-29-13-29-29s13-30 29-30h153c3-16 100-451 105-476-31-13-53-44-53-80 0-49 40-88 88-88h532c16 0 29 13 29 29s-13 30-29 30h-532c-16 0-29 13-29 29 0 16 13 29 29 29z m610 410l-101-351h-485l-78 351z m0 0m-639-615c0-48 39-88 88-88s88 40 88 88-40 88-88 88-88-40-88-88z m88 29c16 0 29-13 29-29s-13-29-29-29-29 13-29 29 13 29 29 29z m0 0m326-29c0-48 40-88 88-88s88 40 88 88-40 88-88 88-88-40-88-88z m88 29c16 0 29-13 29-29s-13-29-29-29-29 13-29 29 13 29 29 29z m0 0" horiz-adv-x="1000" />

<glyph glyph-name="supermarket" unicode="&#xe825;" d="M300 192h551c63 0 114 51 114 113v232c0 0 0 1 0 1 0 0 0 1 0 1 0 1 0 1-1 2 0 0 0 1 0 1s0 1 0 1c0 1 0 1 0 2-1 0-1 1-1 1 0 0 0 1 0 1 0 1-1 1-1 2 0 0 0 0 0 1-1 0-1 0-1 1 0 0 0 0-1 1 0 0 0 1 0 1-1 1-1 1-1 1 0 1-1 1-1 1s-1 1-1 1-1 1-1 1c0 0 0 1-1 1 0 0 0 1-1 1 0 0-1 1-1 1 0 0-1 0-1 0s-1 1-1 1c-1 0-1 1-2 1s0 0-1 0-1 1-1 1-1 0-1 0c-1 1-1 1-2 1s0 0-1 0c0 0-1 0-1 0-1 0-1 0-1 0l-698 97v97c0 1 0 2-1 3 0 0 0 1 0 1 0 1 0 1 0 2 0 0 0 1-1 1 0 1 0 1 0 1 0 1 0 2 0 2 0 1-1 1-1 1 0 1 0 1 0 2-1 0-1 0-1 1 0 0 0 0-1 1 0 0 0 0 0 1s-1 0-1 1 0 1-1 1c0 0 0 1 0 1-1 0-1 1-2 1 0 0 0 0 0 1-1 0-1 0-2 1 0 0 0 0 0 0-1 1-1 1-2 1 0 1-1 1-1 1 0 1-1 1-1 1-1 0-2 1-3 1l-151 64c-14 6-30-1-36-15s0-30 14-36l135-57v-126-20-153-136-173c0-58 43-105 99-112-10-17-16-37-16-58 0-62 50-112 112-112s112 50 112 112c0 21-6 40-16 57h250c-10-17-16-36-16-57 0-62 51-112 112-112s112 50 112 112-50 112-112 112h-524c-32 0-58 26-58 58v75c17-10 37-15 58-15z m138-230c0-31-25-56-56-56s-57 25-57 56 26 57 57 57 56-26 56-57z m443 0c0-31-25-56-56-56s-57 25-57 56 26 57 57 57 56-26 56-57z m-30 285h-551c-32 0-58 26-58 58v137 153 10l667-92v-208c0-32-26-58-58-58z" horiz-adv-x="1000" />

<glyph glyph-name="shopping-bag-1" unicode="&#xe826;" d="M900-14l-57 644c-1 15-14 26-28 26h-117c-2 107-90 194-198 194s-196-87-197-194h-118c-15 0-26-11-28-26l-57-644c0-1 0-2 0-3 0-73 67-133 150-133h500c83 0 150 60 150 133 0 1 0 2 0 3z m-400 809c78 0 141-62 142-139h-284c1 77 65 139 142 139z m250-890h-500c-52 0-94 35-95 77l55 618h92v-84c0-15 13-27 28-27s28 12 28 27v84h284v-84c0-15 13-27 28-27s28 12 28 27v84h92l55-618c-1-42-43-77-95-77z" horiz-adv-x="1000" />

<glyph glyph-name="shopping-bag" unicode="&#xe827;" d="M858-150h-716c-4 0-8 2-11 5-3 3-4 7-4 11l34 716c0 8 7 14 15 14h648c8 0 15-6 15-14l34-716c0-4-1-8-4-11-3-3-7-5-11-5z m-700 30h684l-33 686h-618l-33-686z m506 625c-9 0-15 7-15 16v150c0 82-67 149-149 149s-149-67-149-149v-150c0-9-6-16-15-16s-15 7-15 16v150c0 99 80 179 179 179s179-80 179-179v-150c0-9-7-16-15-16z" horiz-adv-x="1000" />

<glyph glyph-name="shopping-basket" unicode="&#xe828;" d="M938 359h-876c-19-1-23-19-20-27l119-400c3-9 11-15 20-15h638c9 0 17 6 20 15l119 400c3 7 0 26-20 27z m-135-400h-606l-107 358h820l-107-358z m176 471h-151v25c0 181-147 328-328 328-181 0-328-147-328-328v-25h-151c-12 0-21-9-21-21 0-11 9-21 21-21h958c12 0 21 10 21 21 0 12-9 21-21 21z m-765 25c0 158 128 286 286 286s286-128 286-286v-25h-572v25z" horiz-adv-x="1000" />

<glyph glyph-name="menu-1" unicode="&#xe829;" d="M979 663h-958c-12 0-21-10-21-21s9-21 21-21h958c12 0 21 9 21 21s-9 21-21 21z m0-292h-958c-12 0-21-9-21-21s9-21 21-21h958c12 0 21 10 21 21s-9 21-21 21z m0-292h-958c-12 0-21-9-21-21 0-11 9-20 21-20h958c12 0 21 9 21 20 0 12-9 21-21 21z" horiz-adv-x="1000" />

<glyph glyph-name="arrow-right-1" unicode="&#xe82a;" d="M500 850c-276 0-500-224-500-500 0-276 224-500 500-500 276 0 500 224 500 500 0 276-224 500-500 500z m0-950c-248 0-450 202-450 450 0 249 202 450 450 450 249 0 450-201 450-450 0-248-202-450-450-450z m0 0m-58 644c-11 9-27 8-36-2-9-11-8-27 3-36l178-156-178-156c-11-9-12-25-3-35 9-11 25-12 35-3l200 175c6 5 9 12 9 19s-3 14-9 19z m0 0" horiz-adv-x="1000" />

<glyph glyph-name="call" unicode="&#xe82b;" d="M974 79l-203 135c-25 17-60 11-79-13l-59-76c-7-10-21-13-32-7l-11 6c-37 21-84 46-177 139s-118 140-139 177l-6 11c-6 11-3 25 7 32l76 59c24 19 30 54 13 79l-135 203c-18 26-53 34-80 18l-84-51c-27-16-46-41-55-71-30-111-7-303 275-585 225-225 392-285 507-285 26 0 53 3 78 10 30 9 55 28 71 55l51 84c16 27 8 62-18 80z m-11-63l-51-84c-11-19-29-34-51-40-102-28-281-5-552 267s-295 450-267 552c7 22 21 40 40 51l85 51c11 7 26 4 34-8l73-110 62-92c7-11 5-26-6-34l-76-59c-23-18-29-50-15-75l6-11c21-39 48-88 144-185 97-96 146-123 185-144l11-6c25-14 57-8 75 15l58 76c9 11 24 13 35 6l202-135c12-8 15-23 8-35z m-396 667c156 0 283-127 283-283 0-9 7-17 17-17s16 8 16 17c0 175-142 316-316 317-10 0-17-8-17-17s7-17 17-17z m0-100c101 0 183-82 183-183 0-9 7-17 17-17 9 0 16 8 16 17 0 120-97 217-216 217-10 0-17-8-17-17s7-17 17-17z m0-100c46 0 83-37 83-83 0-9 7-17 17-17s16 8 16 17c0 64-52 117-116 117-10 0-17-8-17-17s7-17 17-17z" horiz-adv-x="1000" />

<glyph glyph-name="align-left" unicode="&#xe82c;" d="M1000 732v-58h-1000v58h1000z m-176-235h-824v-59h824v59z m-824-294h1000v59h-1000v-59z m0-235h588v59h-588v-59z" horiz-adv-x="1000" />

<glyph glyph-name="clock-2" unicode="&#xe82d;" d="M442 848c-95-12-179-47-255-107-21-16-69-65-85-86-52-70-84-146-97-229-6-32-6-120 0-152 16-101 62-195 132-269 77-80 171-130 282-150 34-5 106-7 142-2 232 29 412 212 437 444 3 28 2 104-3 130-36 221-212 393-432 420-27 3-97 4-121 1z m79-214c5-3 10-8 14-14l5-9 1-133 0-133 100-100c56-56 102-104 104-107 2-4 3-11 3-17 0-28-27-48-53-38-7 3-31 26-120 115-99 99-112 113-114 120-1 6-2 52-2 151l1 142 5 9c12 20 36 26 56 14z" horiz-adv-x="1000" />

<glyph glyph-name="testimonial" unicode="&#xe82e;" d="M242 710h-36c6 40 28 42 38 43 10 1 17 9 17 19v59c0 5-2 10-6 14s-9 5-14 5c-62-3-135-35-135-163v-102c0-17 13-31 30-31h106c17 0 31 14 31 31v94c0 17-14 31-31 31z m-8-117h-89v94c0 89 40 115 77 122v-21c-26-8-56-31-56-97 0-11 9-20 20-20h48v-78z m208 117h-36c5 40 27 42 37 43 10 1 18 9 18 19v59c0 5-2 10-6 14s-9 5-14 5c-62-3-136-35-136-163v-102c0-17 14-31 31-31h106c17 0 30 14 30 31v94c0 17-13 31-30 31z m-9-117h-89v94c0 89 40 115 78 122v-21c-26-8-56-31-56-97 0-11 9-20 19-20h48v-78z m124 99c-4 4-9 6-14 6s-10-2-14-6-6-8-6-14 3-10 6-13c4-4 9-6 14-6s10 2 14 6 6 8 6 13-3 11-6 14z m96 6h-25c-10 0-19-9-19-20s9-19 19-19h25c170 0 308-138 308-308 0-145-103-272-245-302-9-2-15-10-15-19v-113l-120 120c-4 4-9 6-14 6h-220c-170 0-308 138-308 308 0 52 13 104 39 149 5 10 2 22-8 27-9 5-21 2-26-8-29-51-44-109-44-168 0-192 156-347 347-347h212l148-148c3-4 8-6 13-6 3 0 6 0 8 1 7 3 12 11 12 18v146c71 18 135 59 181 116 51 61 79 140 79 220 0 191-156 347-347 347z m87-195h-480c-11 0-20-8-20-19s9-20 20-20h480c11 0 20 9 20 20s-9 19-20 19z m0-104h-480c-11 0-20-9-20-19 0-11 9-20 20-20h480c11 0 20 9 20 20 0 10-9 19-20 19z m0-104h-480c-11 0-20-9-20-19 0-11 9-20 20-20h480c11 0 20 9 20 20 0 10-9 19-20 19z m0-104h-256c-11 0-19-9-19-20 0-10 8-19 19-19h256c11 0 20 9 20 19 0 11-9 20-20 20z m-366 0h0c-11 0-20-9-20-20 0-10 9-19 20-19h0c11 0 20 9 20 19 0 11-9 20-20 20z" horiz-adv-x="1000" />

<glyph glyph-name="arrow" unicode="&#xe82f;" d="M990 597l0 0c1 0 1 0 1 0 2 3 4 7 6 11 0 1 1 2 1 3 1 3 1 6 2 10 0 1 0 2 0 3 0 1 0 1 0 2 0 4-1 7-2 11 0 0 0 0-1 1-1 3-3 7-5 10-1 0-1 1-1 1l-161 190c-12 15-33 15-45 1-13-15-13-38-1-53l87-102c-127 17-252-10-258-11-385-70-657-425-607-793 2-18 16-31 32-31 1 0 3 0 5 0 17 4 29 22 26 42-44 328 204 646 555 709 2 1 131 28 252 9l-134-79c-15-10-22-32-14-50 9-18 28-25 44-16l211 126c3 1 5 4 7 6z" horiz-adv-x="1000" />

<glyph glyph-name="sticky" unicode="&#xe830;" d="M573 37q0-23-15-38t-37-15q-21 0-37 16l-169 169-315-236 236 315-168 169q-24 23-12 56 14 32 48 32 157 0 270 57 90 45 151 171 9 24 36 32t50-13l208-209q21-23 14-50t-32-36q-127-63-172-152-56-110-56-268z" horiz-adv-x="834" />

<glyph glyph-name="pin-outline" unicode="&#xe831;" d="M856 554q30-30 30-73t-30-75q-16-16-36-24-106-51-144-125-51-102-51-246 0-45-29-74t-75-30q-47 0-75 30l-167 169-279-199 199 279-169 168q-20 18-27 49t5 64q27 65 96 65 146 0 246 50l11 7q69 37 118 141 7 20 21 34 30 30 74 29t74-31z m-273-250q53 107 196 175l-205 211q-69-146-176-200l-13-6q-120-57-281-57l416-416q0 168 63 293z" horiz-adv-x="886" />

<glyph glyph-name="clock" unicode="&#xe832;" d="M500 546v-250q0-7-5-12t-13-5h-178q-8 0-13 5t-5 12v36q0 8 5 13t13 5h125v196q0 8 5 13t12 5h36q8 0 13-5t5-13z m232-196q0 83-41 152t-110 111-152 41-153-41-110-111-41-152 41-152 110-111 153-41 152 41 110 111 41 152z m125 0q0-117-57-215t-156-156-215-58-216 58-155 156-58 215 58 215 155 156 216 58 215-58 156-156 57-215z" horiz-adv-x="857.1" />

<glyph glyph-name="phone" unicode="&#xe833;" d="M786 158q0-15-6-39t-12-38q-11-28-68-60-52-28-103-28-15 0-30 2t-32 7-26 8-31 11-28 10q-54 20-97 47-71 44-148 120t-120 148q-27 43-46 97-2 5-10 28t-12 31-8 26-7 32-2 29q0 52 29 104 31 57 59 68 14 6 38 12t39 6q8 0 12-2 10-3 30-42 6-11 16-31t20-35 17-30q2-2 10-14t12-20 4-16q0-11-16-27t-35-31-34-30-16-25q0-5 3-13t4-11 8-14 7-10q42-77 97-132t131-97q1 0 10-6t14-8 11-5 13-2q10 0 25 16t30 34 31 35 28 16q7 0 15-4t20-12 14-10q14-8 30-17t36-20 30-17q39-19 42-29 2-4 2-12z" horiz-adv-x="785.7" />

<glyph glyph-name="curve-arrow" unicode="&#xe834;" d="M852 375c-95 229-330 358-564 329l91 92-54 54-218-218 218-218 54 54-147 148c221 60 459-52 549-270 62-150 42-319-54-451l61-45c54 73 89 160 100 250 12 93 0 188-36 275z" horiz-adv-x="1000" />

<glyph glyph-name="placeholder" unicode="&#xe835;" d="M503 631c-70 0-128-57-128-128s58-128 128-128 128 58 128 128-57 128-128 128z m0-219c-50 0-91 41-91 91s41 91 91 91 92-41 92-91-41-91-92-91z m245 335c-66 67-154 103-248 103-93 0-181-36-248-103-122-122-137-352-33-492l281-405 280 405c105 140 90 370-32 492z m3-471l-251-362-251 363c-95 126-81 334 29 445 60 59 138 92 222 92s163-33 222-92c110-111 124-319 29-446z" horiz-adv-x="1000" />

<glyph glyph-name="clock-1" unicode="&#xe836;" d="M460 810q190 0 325-135t135-325-135-325-325-135-325 135-135 325 135 325 325 135z m0-820q150 0 255 106t105 254q0 150-105 255t-255 105q-148 0-254-105t-106-255q0-148 106-254t254-106z m36 620l0-244 150-150-50-50-170 170 0 274 70 0z" horiz-adv-x="920" />

<glyph glyph-name="email" unicode="&#xe837;" d="M950 733h-900c-28 0-50-22-50-50v-666c0-28 22-50 50-50h900c28 0 50 22 50 50v666c0 28-22 50-50 50z m17-716c0-9-8-17-17-17h-900c-9 0-17 8-17 17v666c0 10 8 17 17 17h900c9 0 17-7 17-17v-666z m-49 650c-4 0-9-1-12-4l-385-323c-12-11-30-11-42 0l-385 323c-4 4-11 5-16 3-6-2-10-7-11-13s1-12 6-16l384-323c25-21 61-21 86 0l384 323c4 3 6 7 6 12 1 4-1 8-4 12-2 3-6 5-11 6z m-597-350c-6 1-12-1-16-6l-234-250c-4-4-6-10-4-16 2-6 7-10 12-11 6-2 13 0 17 5l233 250c4 4 6 10 4 16-2 6-6 10-12 12z m375-6c-4 5-11 7-17 6-5-2-10-6-12-12-2-6 0-12 4-16l234-250c6-7 16-7 23-1 6 6 7 17 1 23l-233 250z" horiz-adv-x="1000" />

<glyph glyph-name="user-1" unicode="&#xe838;" d="M731 201c0 0-116-4-133 120 19 13 37 30 52 51 30 41 50 92 57 147 2 2 4 5 5 8 13 30 19 61 19 94 0 126-95 229-212 229-31 0-60-7-88-21-11-1-22-3-32-6-48-13-87-49-110-100-22-49-26-107-12-163 3-12 7-24 11-35 2-3 4-6 6-8 11-86 52-157 108-196-17-124-133-120-133-120-83-3-150-71-150-155v-174c0-12 11-22 23-22h198 320 198c13 0 23 10 23 22v174c0 84-67 152-150 155z m-319 579c8 3 17 4 26 4 3 1 6 1 9 3 23 12 47 18 72 18 92 0 167-82 167-184 0-3 0-6 0-9-18 18-43 30-70 30h-154c-9 0-18 2-25 8-6 5-11 11-14 18-4 11-15 18-27 17-12-1-22-9-25-21-9-34-27-65-51-91-23 93 18 186 92 207z m-20-389c-29 36-48 84-54 137 28 25 51 57 65 92 3-2 5-4 7-6 15-11 33-17 52-17h154c21 0 40-13 49-32 0 0-1 0-1-1 0-127-73-230-164-230-39 0-78 20-108 57z m52-92c18-7 37-10 56-10 19 0 38 3 56 10 8-43 32-81 66-106l-119-169c0-1-2-1-3-1-1 0-2 0-3 1l-118 169c33 25 57 63 65 106z m392-404h-176-320-176v151c0 61 50 110 110 110 1 0 37 1 66 14l120-172c9-13 24-21 40-21 0 0 0 0 0 0 16 0 31 8 40 21l120 172c33-14 65-14 66-14 60 0 110-49 110-110v-151z" horiz-adv-x="1000" />

<glyph glyph-name="doctor-stethoscope" unicode="&#xe839;" d="M889 754c-25 44-71 71-121 71v-50c32 0 62-17 78-45 17-29 17-63 0-92l-159-276c-17-28-46-45-79-45-33 0-62 17-79 45l-159 276c-17 29-17 63 0 92s46 45 78 45v50c-50 0-96-27-121-71s-26-96 0-140l159-277c21-36 57-61 97-68v-133c0-130-77-236-171-236-95 0-171 106-171 236v159c56 11 99 61 99 121 0 69-56 124-124 124s-124-55-124-124c0-60 42-110 99-121v-159c0-158 99-286 221-286 122 0 221 128 221 286v133c40 7 76 32 97 68l159 277c26 44 26 96 0 140z" horiz-adv-x="1000" />

<glyph glyph-name="right-arrow" unicode="&#xe83a;" d="M993 366l0 0-227 227c-8 10-22 11-32 3-9-8-11-23-2-32 0-1 1-2 2-3l189-188h-900c-13 0-23-11-23-23s10-23 23-23h900l-189-188c-9-8-11-23-2-32s22-11 32-3c1 1 1 2 2 3l227 227c9 9 9 23 0 32z" horiz-adv-x="1000" />

<glyph glyph-name="supermarket-2" unicode="&#xe83b;" d="M792 142c-69 0-125-56-125-125s56-125 125-125 125 56 125 125-56 125-125 125z m0-175c-28 0-50 23-50 50s22 50 50 50c27 0 50-22 50-50s-23-50-50-50z m200 657c-7 9-18 14-29 14h-732l-34 141c-4 17-19 29-36 29h-124c-20 0-37-17-37-38s17-37 37-37h94l122-509c4-17 19-29 36-29h583c17 0 32 12 36 29l91 368c3 11 0 23-7 32z m-150-354h-523l-70 293h666l-73-293z m-503-128c-69 0-124-56-124-125s55-125 124-125 125 56 125 125-56 125-125 125z m0-175c-27 0-50 23-50 50s23 50 50 50 50-22 50-50-22-50-50-50z" horiz-adv-x="1000" />

<glyph glyph-name="speech-bubble" unicode="&#xe83c;" d="M853 704c-195 195-511 195-707 0-188-188-195-489-21-685l6-4c-19-41-52-92-103-117-17-8-13-34 5-36 57-9 138 1 213 58l1-1c192-113 442-87 607 77 195 196 195 512-1 708z m-188-568c-11-11-23-21-33-33-15-17-35-23-56-21-32 1-61 12-89 26-63 30-116 72-161 125-33 40-60 83-78 131-9 23-15 47-13 73 1 15 7 29 18 40 13 11 24 24 37 36 16 16 36 15 52 0 10-10 19-20 29-30 9-9 19-18 28-28 17-17 17-36 0-53-11-12-23-24-36-36-3-3-3-6-1-10 7-19 19-36 32-51 26-33 55-61 91-83 7-5 16-8 23-12 4-3 7-2 10 1 12 13 25 25 37 37 16 16 36 16 51 0 20-20 39-39 59-58 16-17 16-37 0-54z m-185 323l7 45c43-6 82-26 113-57 29-29 48-66 55-106l-44-8c-6 31-21 60-43 82-24 24-54 40-88 44z m247-118c-10 58-37 111-79 153-44 44-100 72-162 80l6 45c72-10 137-42 188-94 48-48 80-109 91-177l-44-7z" horiz-adv-x="1000" />

<glyph glyph-name="appointment" unicode="&#xe83d;" d="M902 764h-93v27c0 33-26 59-58 59s-59-26-59-59v-27h-328v27c0 33-26 59-59 59s-58-26-58-59v-28c-2 1-4 1-5 1h-78c-54 0-98-44-98-98v-332c0-11 9-20 20-20s19 9 19 20v229h704c11 0 20 9 20 19s-9 20-20 20h-704v64c0 33 26 59 59 59h78c1 0 3 0 5 1v-25c0-33 26-59 58-59s59 26 59 59v24h328v-24c0-33 26-59 59-59s58 26 58 59v24h93c33 0 59-26 59-59v-742c0-19-16-35-35-35s-35 16-35 35v51c0 10-9 19-20 19h-227c-11 0-20-9-20-19s9-20 20-20h208v-31c0-13 3-25 8-35h-786c-19 0-35 16-35 35v31h437c11 0 20 9 20 20s-9 19-20 19h-195c34 30 56 73 56 122 0 88-72 160-160 160-89 0-160-72-160-160 0-49 21-92 55-122h-52c-11 0-20-9-20-19v-51c0-41 33-74 74-74h852c41 0 74 33 74 74v742c0 54-44 98-98 98z m-577-63c0-11-9-20-20-20s-19 9-19 20v90c0 11 9 20 19 20s20-9 20-20v-90z m445 0c0-11-9-20-19-20-11 0-20 9-20 20v90c0 11 9 20 20 20 10 0 19-9 19-20v-90z m-714-585c0 66 54 121 121 121s121-55 121-121-54-122-121-122-121 55-121 122z m859 480c-4 4-9 6-14 6-5 0-10-2-14-6-4-3-6-8-6-14s2-10 6-13c4-4 9-6 14-6 5 0 10 2 14 6 3 3 5 8 5 13s-2 11-5 14z m-332-607c-3 3-8 5-13 5s-11-2-14-5c-4-4-6-9-6-14 0-5 2-10 6-14 3-4 8-6 14-6s10 2 13 6c4 4 6 9 6 14 0 5-2 10-6 14z m-141 267c-41 0-74-33-74-74s33-74 74-74 74 33 74 74-33 74-74 74z m0-109c-19 0-35 16-35 35s16 35 35 35 35-16 35-35-16-35-35-35z m182 109c-41 0-74-33-74-74s33-74 74-74 74 33 74 74-33 74-74 74z m0-109c-19 0-35 16-35 35s16 35 35 35 35-16 35-35-15-35-35-35z m183 109c-41 0-75-33-75-74s34-74 75-74c40 0 74 33 74 74s-34 74-74 74z m0-109c-20 0-36 16-36 35s16 35 36 35 35-16 35-35-16-35-35-35z m-547 312c-41 0-75-33-75-74s34-74 75-74 74 33 74 74-33 74-74 74z m0-109c-20 0-36 16-36 35s16 35 36 35c19 0 35-15 35-35s-16-35-35-35z m364 109c-41 0-74-33-74-74s33-74 74-74 74 33 74 74-33 74-74 74z m0-109c-19 0-35 16-35 35s16 35 35 35 35-15 35-35-15-35-35-35z m183 109c-41 0-75-33-75-74s34-74 75-74c40 0 74 33 74 74s-34 74-74 74z m0-109c-20 0-36 16-36 35s16 35 36 35 35-15 35-35-16-35-35-35z m-365 109c-41 0-74-33-74-74s33-74 74-74 74 33 74 74-33 74-74 74z m0-109c-19 0-35 16-35 35s16 35 35 35 35-15 35-35-16-35-35-35z m-196-187c-7 8-20 8-27 0l-64-63-22 21c-7 8-20 8-27 0-8-7-8-20 0-27l35-36c4-3 9-5 14-5 5 0 10 2 14 5l77 78c8 7 8 20 0 27z" horiz-adv-x="1000" />

<glyph glyph-name="shopping-cart" unicode="&#xe83e;" d="M958 642h-781l-12 129c-2 21-19 37-41 37h-83c-23 0-41-18-41-41s18-41 41-41h46c25-279-40 443 47-525 3-38 24-79 59-107-63-81-5-201 98-201 86 0 146 86 117 167h224c-29-81 31-167 117-167 69 0 125 56 125 124s-56 125-125 125h-458c-31 0-58 19-70 46l656 38c18 1 33 14 37 31l84 334c6 26-14 51-40 51z m-667-667c-23 0-42 19-42 42s19 43 42 43c23 0 42-19 42-43s-19-42-42-42z m458 0c-23 0-42 19-42 42s19 43 42 43 43-19 43-43-19-42-43-42z m93 332l-632-38-26 291h721z" horiz-adv-x="1000" />

<glyph glyph-name="quote-1" unicode="&#xe83f;" d="M0 288h181l-63-313h251l68 338 1 412h-438v-437z m63 375h312v-341l-57-284h-124l63 312h-194v313z m500 62v-437h180l-62-313h251l67 338 1 412h-437z m375-403l-57-284h-124l62 312h-194v313h313v-341z" horiz-adv-x="1000" />

<glyph glyph-name="chat-2" unicode="&#xe840;" d="M979 788h-625c-11 0-21-10-21-21v-188h-312c-12 0-21-9-21-21v-458c0-11 9-21 21-21h62v-146c0-8 5-16 13-19 3-1 6-2 8-2 6 0 11 3 15 7l161 160h366c11 0 21 10 21 21v188h54l160-161c4-4 9-6 15-6 3 0 5 0 8 1 8 4 13 11 13 20v146h62c12 0 21 9 21 20v459c0 11-9 21-21 21z m-354-667h-354c-6 0-11-2-15-6l-131-131v116c0 12-9 21-21 21h-62v417h291v-230c0-11 10-20 21-20h271v-167z m333 208h-62c-12 0-21-9-21-21v-116l-131 131c-4 4-9 6-15 6h-354v417h583v-417z" horiz-adv-x="1000" />

<glyph glyph-name="letter" unicode="&#xe841;" d="M1000-123c0 4 0 615 0 617-1 6-3 11-6 15-4 5 7-4-135 106v204c0 17-14 31-31 31h-656c-17 0-31-14-31-31v-204c-140-108-130-100-133-103-5-6-7-12-8-20 0 0 0-612 1-618 3-15 16-24 30-24 1005 0 939-1 945 1 13 3 22 14 24 26z m-937 550l311-241-311-241z m362-281l56-43c11-8 27-8 38 0l56 43 302-234h-754z m201 40c215 166 143 110 312 241v-482z m292 305l-59-45v90z m-121 297v-391l-297-230c-318 247-247 192-297 230v391z m-656-342l-59 45 59 45z m156 201h406c17 0 31 14 31 31s-14 31-31 31h-406c-17 0-31-14-31-31s14-31 31-31z m0-141h406c17 0 31 14 31 32s-14 31-31 31h-406c-17 0-31-14-31-31s14-32 31-32z m0-140h406c17 0 31 14 31 31s-14 31-31 31h-406c-17 0-31-14-31-31s14-31 31-31z" horiz-adv-x="1000" />

<glyph glyph-name="placeholder-1" unicode="&#xe842;" d="M506 415c63 0 114 52 114 115s-51 114-114 114-115-51-115-114 52-115 115-115z m0 197c45 0 82-37 82-82s-37-82-82-82-82 37-82 82 37 82 82 82z m315-376h-117l50 72c94 125 80 331-29 441-60 59-138 91-222 91-84 0-163-32-222-91-109-110-123-316-29-441l50-72h-123l-179-377h1000l-179 377z m-543 91c-85 114-73 300 26 399 53 53 124 82 199 82s145-29 199-82c98-99 111-286 25-399l-224-324-161 233h0l-64 91z m-78-124h125l178-258 178 258h119l148-311h-896l148 311z" horiz-adv-x="1000" />

<glyph glyph-name="star" unicode="&#xe843;" d="M929 489q0-12-15-27l-202-197 48-279q0-4 0-12 0-11-6-19t-17-9q-10 0-22 7l-251 132-250-132q-12-7-23-7-11 0-17 9t-6 19q0 4 1 12l48 279-203 197q-14 15-14 27 0 21 31 26l280 40 126 254q11 23 27 23t28-23l125-254 280-40q32-5 32-26z" horiz-adv-x="928.6" />

<glyph glyph-name="calendar-1" unicode="&#xe844;" d="M71-79h161v161h-161v-161z m197 0h178v161h-178v-161z m-197 197h161v178h-161v-178z m197 0h178v178h-178v-178z m-197 214h161v161h-161v-161z m411-411h179v161h-179v-161z m-214 411h178v161h-178v-161z m428-411h161v161h-161v-161z m-214 197h179v178h-179v-178z m-196 482v161q0 7-6 12t-12 6h-36q-7 0-12-6t-6-12v-161q0-7 6-13t12-5h36q7 0 12 5t6 13z m410-482h161v178h-161v-178z m-214 214h179v161h-179v-161z m214 0h161v161h-161v-161z m18 268v161q0 7-5 12t-13 6h-35q-7 0-13-6t-5-12v-161q0-7 5-13t13-5h35q8 0 13 5t5 13z m215 36v-715q0-29-22-50t-50-21h-786q-29 0-50 21t-21 50v715q0 29 21 50t50 21h72v54q0 37 26 63t63 26h36q37 0 63-26t26-63v-54h214v54q0 37 27 63t63 26h35q37 0 64-26t26-63v-54h71q29 0 50-21t22-50z" horiz-adv-x="928.6" />

<glyph glyph-name="share" unicode="&#xe845;" d="M885 683c0-74-60-135-135-135s-135 61-135 135c0 75 60 136 135 136s135-61 135-136z m0 0m-135-166c-92 0-167 74-167 166 0 92 75 167 167 167s167-75 167-167c0-92-75-166-167-166z m0 271c-57 0-104-47-104-105 0-57 47-104 104-104s104 47 104 104c0 58-46 105-104 105z m0 0m135-771c0-75-60-136-135-136s-135 61-135 136c0 75 60 135 135 135s135-60 135-135z m0 0m-135-167c-92 0-167 75-167 167 0 92 75 166 167 166s167-74 167-166c0-92-75-167-167-167z m0 271c-57 0-104-47-104-104 0-58 47-105 104-105s104 47 104 105c0 57-46 104-104 104z m0 0m-448 229c0-75-60-135-135-135-75 0-136 60-136 135s61 135 136 135c75 0 135-60 135-135z m0 0m-135-167c-92 0-167 75-167 167s75 167 167 167c92 0 166-75 166-167s-74-167-166-167z m0 271c-58 0-104-47-104-104s46-104 104-104c57 0 104 47 104 104s-47 104-104 104z m0 0m98-84c-14 0-28 8-36 21-12 20-5 46 15 57l387 220c20 12 45 5 57-15 11-20 4-46-16-57l-386-220c-7-4-14-6-21-6z m0 0m387-344c-7 0-14 2-21 6l-387 220c-19 12-26 37-15 57 11 20 37 27 57 16l386-221c20-11 27-37 16-57-8-13-22-21-36-21z m0 0" horiz-adv-x="1000" />

<glyph glyph-name="left-arrow" unicode="&#xe846;" d="M977 373h-899l188 189c9 9 9 23 0 32-9 9-23 9-32 0l-227-227c-9-9-9-23 0-32l227-228c8-9 22-10 32-2 10 8 11 22 2 32 0 1-1 2-2 2l-188 189h899c13 0 23 10 23 23s-10 22-23 22z" horiz-adv-x="1000" />

<glyph glyph-name="right" unicode="&#xe847;" d="M994 365l-313 312c-8 8-21 8-29 0-8-8-8-21 0-29l277-277h-908c-12 0-21-9-21-21s9-21 21-21h908l-277-277c-8-8-8-21 0-29 4-4 9-6 15-6 5 0 10 2 14 6l313 312c8 8 8 22 0 30z" horiz-adv-x="1000" />

<glyph glyph-name="chat-bubble" unicode="&#xe848;" d="M971 570c0 155-126 280-280 280-148 0-268-114-279-259 169-17 307-139 348-301h211l-71 94c44 50 71 115 71 186z m-569-37c-201 18-373-141-373-341 0-87 33-166 87-227l-87-115h342c189 0 342 153 342 342 0 178-136 325-311 341z m-217-248h186v-62h-186z m373-186h-373v62h373z" horiz-adv-x="1000" />

<glyph glyph-name="bookmark" unicode="&#xe849;" d="M650 779q12 0 24-5 19-8 29-23t11-35v-719q0-19-11-35t-29-23q-10-4-24-4-27 0-47 18l-246 236-246-236q-20-19-46-19-13 0-25 5-18 7-29 23t-11 35v719q0 19 11 35t29 23q12 5 25 5h585z" horiz-adv-x="714.3" />

<glyph glyph-name="chat-bubble-1" unicode="&#xe84a;" d="M0 81h126v-193l213 193h379v528h-718z m531 172h-345v59h345z m-407 184h470v-59h-470z m158 375v-145h495v-473l113-103v194h110v527z" horiz-adv-x="1000" />

<glyph glyph-name="phone-volume-solid" unicode="&#xe84b;" d="M190-140c-254 254-253 664 0 918 11 11 29 13 42 4l126-79a34 34 0 0 0 14-41l-64-158a34 34 0 0 0-34-21l-109 11c-41-114-40-239 0-351l109 11a34 34 0 0 0 34-21l64-158a34 34 0 0 0-14-41l-126-79a34 34 0 0 0-42 5z m293 804c23-40 23-88 0-127-8-14-26-16-37-6l-12 12c-7 7-9 18-4 28a63 63 0 0 1 0 58c-5 10-3 21 4 28l12 12c11 10 29 8 37-5z m179 178c117-140 117-344 0-484-9-10-24-11-34-1l-12 10c-9 9-9 23-1 32 97 117 97 285 0 402-8 9-8 23 1 32l12 11c10 9 25 8 34-2z m-90-88c71-91 71-217 0-308-8-11-25-12-35-2l-11 11c-9 8-10 21-3 31 52 67 52 161 0 228-7 10-6 23 3 32l11 10c10 10 27 9 35-2z" horiz-adv-x="750" />

<glyph glyph-name="heart-empty" unicode="&#xe84c;" d="M929 517q0 46-12 80t-31 55-46 33-52 18-55 4-62-14-62-36-48-40-34-34q-10-13-27-13t-27 13q-14 15-34 34t-48 40-62 36-62 14-55-4-52-18-46-33-31-55-12-80q0-93 105-198l324-312 324 312q105 105 105 198z m71 0q0-123-128-251l-347-335q-10-10-25-10t-25 10l-348 336q-5 5-15 15t-31 37-38 54-30 67-13 77q0 123 71 192t196 70q34 0 70-12t67-33 54-38 42-38q20 20 42 38t54 38 67 33 70 12q125 0 196-70t71-192z" horiz-adv-x="1000" />

<glyph glyph-name="check-solid" unicode="&#xe84d;" d="M340-8l-325 325c-20 19-20 51 0 71l70 70c20 20 52 20 71 0l219-219 469 469c20 20 51 20 71 0l70-70c20-20 20-52 0-71l-575-575c-19-20-51-20-70 0z" horiz-adv-x="1000" />

<glyph glyph-name="left-arrow-1" unicode="&#xe84e;" d="M324 350l434 434c15 15 15 40 0 55-15 15-39 15-54 0l-462-462c-15-15-15-39 0-54l462-462c15-15 39-15 54 1 15 15 15 38 0 53l-434 435z" horiz-adv-x="1000" />

<glyph glyph-name="next" unicode="&#xe84f;" d="M759 377l-463 462c-15 15-40 15-55 0-15-15-15-40 0-55l435-434-435-434c-15-15-15-39 0-55 8-7 18-11 28-11 10 0 20 4 27 11l463 462c7 7 11 17 11 27s-4 20-11 27z" horiz-adv-x="1000" />

<glyph glyph-name="square-dot-" unicode="&#xe850;" d="M26 735c0-85 5-90 89-90 85 0 90 5 90 90 0 84-5 89-90 89-84 0-89-5-89-89z m0-795c0-85 5-90 89-90 85 0 90 5 90 90 0 84-5 90-90 90-84 0-89-6-89-90z" horiz-adv-x="231" />

<glyph glyph-name="cart" unicode="&#xe851;" d="M1000 575c0 1-1 2-1 3 0 3 0 5-1 7-1 3-2 5-3 7-1 2-2 4-3 6-2 2-4 3-5 5-2 1-4 2-6 4-2 1-4 2-7 3-1 0-2 1-3 1-1 0-3 0-4 0-1 0-3 1-4 1l-716 0c-1 0-1 0-2 0l-24 81c-5 15-19 26-36 26h-148c-20 0-37-17-37-37 0-21 17-37 37-37h121l140-468c5-15 19-26 36-26h543c17 0 32 12 36 29l86 387c0 1 0 2 0 4 0 1 1 2 1 4z m-153-350h-486l-94 313 650 0-70-313z" horiz-adv-x="1000" />

<glyph glyph-name="calendar-alt-solid" unicode="&#xe852;" d="M0-56c0-52 42-94 94-94h687c52 0 94 42 94 94v531h-875v-531z m625 383c0 13 11 23 23 23h79c13 0 23-10 23-23v-79c0-12-10-23-23-23h-79c-12 0-23 11-23 23v79z m0-250c0 13 11 23 23 23h79c13 0 23-10 23-23v-79c0-13-10-23-23-23h-79c-12 0-23 10-23 23v79z m-250 250c0 13 11 23 23 23h79c13 0 23-10 23-23v-79c0-12-10-23-23-23h-79c-12 0-23 11-23 23v79z m0-250c0 13 11 23 23 23h79c13 0 23-10 23-23v-79c0-13-10-23-23-23h-79c-12 0-23 10-23 23v79z m-250 250c0 13 11 23 23 23h79c13 0 23-10 23-23v-79c0-12-10-23-23-23h-79c-12 0-23 11-23 23v79z m0-250c0 13 11 23 23 23h79c13 0 23-10 23-23v-79c0-13-10-23-23-23h-79c-12 0-23 10-23 23v79z m656 648h-93v94c0 17-15 31-32 31h-62c-17 0-31-14-31-31v-94h-250v94c0 17-15 31-32 31h-62c-17 0-31-14-31-31v-94h-94c-52 0-94-42-94-94v-93h875v93c0 52-42 94-94 94z" horiz-adv-x="875" />

<glyph glyph-name="call-1" unicode="&#xe853;" d="M974 79l-203 135c-25 17-60 11-79-13l-59-76c-7-10-21-13-32-7l-11 6c-37 21-84 46-177 139s-118 140-139 177l-6 11c-6 11-3 25 7 32l76 59c24 19 30 54 13 79l-135 203c-18 26-53 34-80 18l-84-51c-27-16-46-41-55-71-30-111-7-303 275-585 225-225 392-285 507-285 26 0 53 3 78 10 30 9 55 28 71 55l51 84c16 27 8 62-18 80z m-11-63l-51-84c-11-19-29-34-51-40-102-28-281-5-552 267s-295 450-267 552c7 22 21 40 40 51l85 51c11 7 26 4 34-8l73-110 62-92c7-11 5-26-6-34l-76-59c-23-18-29-50-15-75l6-11c21-39 48-88 144-185 97-96 146-123 185-144l11-6c25-14 57-8 75 15l58 76c9 11 24 13 35 6l202-135c12-8 15-23 8-35z m-396 667c156 0 283-127 283-283 0-9 7-17 17-17s16 8 16 17c0 175-142 316-316 317-10 0-17-8-17-17s7-17 17-17z m0-100c101 0 183-82 183-183 0-9 7-17 17-17 9 0 16 8 16 17 0 120-97 217-216 217-10 0-17-8-17-17s7-17 17-17z m0-100c46 0 83-37 83-83 0-9 7-17 17-17s16 8 16 17c0 64-52 117-116 117-10 0-17-8-17-17s7-17 17-17z" horiz-adv-x="1000" />

<glyph glyph-name="location-1" unicode="&#xe854;" d="M328 166c41-59 82-110 110-144 4-5 7-9 11-14h-82c-9 0-17-7-17-16s8-17 17-17h266c10 0 17 7 17 17s-7 16-17 16h-82c4 5 7 9 11 14 28 33 69 85 110 144 41 56 78 115 110 177 34 67 51 122 51 165 1 88-35 173-97 236-4 4-11 6-16 4-6-1-11-6-12-11-2-6 0-12 4-17 57-56 88-132 88-212 0-37-16-88-48-150-31-60-67-118-107-173-41-58-81-109-108-142-9-11-17-21-24-29-3-3-8-6-13-6-5 0-9 3-13 6-7 8-15 18-24 29-26 33-67 84-108 142-40 55-76 113-107 173-32 62-48 113-48 150 0 121 72 230 183 277 75 31 159 31 234 0 5-3 12-2 16 2 5 3 8 9 7 15-1 6-5 11-10 13-170 72-365-7-437-177-17-41-26-85-26-130 0-43 17-98 51-165 32-62 69-121 110-177z m172 492c9 0 17 8 17 17s-8 17-17 17c-79 0-148-56-163-134-16-78 26-157 99-187 74-30 158-5 203 61 44 67 35 155-21 211-4 4-10 6-16 4-6-1-11-6-12-11-2-6 0-13 4-17 45-45 52-115 17-168-35-53-103-74-162-49-59 24-92 87-80 149s67 107 131 107z m494-726l-103 183c-9 17-26 27-45 27h-119c-9 0-17-8-17-17s8-17 17-17h119c7 0 13-3 16-9l103-183c2-5 2-11 0-16-4-5-10-9-17-8h-896c-7-1-13 3-16 8-3 5-3 11-1 16l103 183c3 6 10 9 16 9h119c9 0 17 8 17 17s-8 17-17 17h-119c-19 0-36-10-45-27l-103-183c-8-15-8-34 1-48 9-16 26-26 45-26h896c19 0 36 10 45 26 9 14 9 33 1 48z m-177 126h-67c-3 0-6-1-9-2l-50-34c-8-5-10-15-5-23 5-8 16-10 23-5l46 31h62c9 0 16 7 16 17 0 9-7 16-16 16z m-100-116c0-10 7-17 16-17h134c9 0 16 7 16 17s-7 16-16 16h-134c-9 0-16-7-16-16z m-417 50c7 0 14 4 16 12 2 7-1 14-7 18l-50 34c-2 1-6 2-9 2h-67c-9 0-16-7-16-16 0-10 7-17 16-17h62l46-31c3-1 6-2 9-2z m-167-34c-9 0-16-7-16-16s7-17 16-17h134c9 0 16 7 16 17s-7 16-16 16h-134z" horiz-adv-x="1000" />

<glyph glyph-name="forward" unicode="&#xe855;" d="M1000 493q0-15-11-25l-285-286q-11-11-25-11t-25 11-11 25v143h-125q-55 0-98-3t-86-12-74-24-59-39-45-56-27-77-10-101q0-31 3-69 0-4 2-13t1-15q0-8-5-14t-13-6q-9 0-15 10-4 5-8 12t-7 17-6 13q-71 159-71 252 0 111 30 186 90 225 488 225h125v143q0 14 11 25t25 10 25-10l285-286q11-11 11-25z" horiz-adv-x="1000" />

<glyph glyph-name="pin" unicode="&#xe856;" d="M500 850c-184 0-333-149-333-333 0-55 14-110 40-159l275-497c3-7 10-11 18-11s15 4 18 11l275 497c27 49 40 104 40 159 0 184-149 333-333 333z m0-500c-92 0-167 75-167 167 0 92 75 166 167 166s167-74 167-166c0-92-75-167-167-167z" horiz-adv-x="1000" />

<glyph glyph-name="left" unicode="&#xe857;" d="M979 371h-908l277 277c8 8 8 21 0 29-8 8-21 8-29 0l-313-312c-8-8-8-22 0-30l313-312c4-4 9-6 14-6 6 0 11 2 15 6 8 8 8 21 0 29l-277 277h908c12 0 21 10 21 21s-9 21-21 21z" horiz-adv-x="1000" />

<glyph glyph-name="plus-symbol-button" unicode="&#xe858;" d="M1000 445v-190c0-15-12-26-26-26h-353v-353c0-14-11-26-26-26h-190c-15 0-26 12-26 26v353h-353c-14 0-26 11-26 26v190c0 15 12 26 26 26h353v353c0 14 11 26 26 26h190c15 0 26-12 26-26v-353h353c14 0 26-11 26-26z" horiz-adv-x="1000" />

<glyph glyph-name="left-dir" unicode="&#xe859;" d="M357 600v-500q0-14-10-25t-26-11-25 11l-250 250q-10 11-10 25t10 25l250 250q11 11 25 11t26-11 10-25z" horiz-adv-x="357.1" />

<glyph glyph-name="right-dir" unicode="&#xe85a;" d="M321 350q0-14-10-25l-250-250q-11-11-25-11t-25 11-11 25v500q0 15 11 25t25 11 25-11l250-250q10-10 10-25z" horiz-adv-x="357.1" />

<glyph glyph-name="phone-call" unicode="&#xe85b;" d="M252 850c-11 0-19-9-19-19 0-11 8-20 19-20 110 0 200-92 200-205 0-11 9-20 20-20 11 0 19 9 19 20 0 134-107 244-239 244z m0-93c-11 0-20-8-20-19 0-11 9-20 20-20 60 0 110-50 110-112 0-11 8-20 19-20 11 0 20 9 20 20 0 83-67 151-149 151z m0-85c-10 0-19-9-19-20 0-10 9-19 19-19 15 0 26-12 26-27 0-11 9-19 20-19 10 0 19 8 19 19 0 37-29 66-65 66z m644 23h-44c-11 0-19-9-19-19s8-20 19-20h44c36 0 65-29 65-65v-265c0-21-10-40-25-52v51c0 40-28 74-68 82l-12 2c3 9 4 18 4 27v45c0 49-40 89-88 89s-89-40-89-89v-45c0-9 2-18 5-27l-13-2c-39-8-68-42-68-82v-56c-19 11-33 32-33 57v265c0 36 30 65 66 65h46c11 0 20 9 20 20s-9 19-20 19h-46c-58 0-105-47-105-104v-265c0-58 47-105 105-105h98v-56c0-8 5-15 12-18 2-1 5-2 7-2 6 0 11 2 14 6l71 70h54c57 0 104 47 104 105v265c0 57-47 104-104 104z m-174-214c0 28 22 50 50 50s49-22 49-50v-45c0-27-22-49-49-49-28 0-50 22-50 49v45z m175-221c0 0-1 0-1 0h-62v0c-6 0-10-2-14-6l-43-42v29c0 10-9 19-20 19h-111v65c0 21 15 39 36 43l28 5c16-15 38-25 62-25 24 0 46 10 62 25l27-5c21-4 36-22 36-43v-65z m-123 430c-4 3-9 5-14 5-5 0-10-2-14-5-4-4-6-9-6-14 0-5 2-10 6-14 4-4 9-6 14-6 5 0 10 2 14 6 3 4 5 9 5 14 0 5-2 10-5 14z m-411-497c-4 4-9 6-14 6-5 0-10-2-14-6-3-4-5-9-5-14 0-5 2-10 5-14 4-3 9-5 14-5 5 0 10 2 14 5 4 4 6 9 6 14 0 5-2 10-6 14z m428-177l-150 150c-20 20-51 23-75 7l-95-65c-8-6-18-5-25 2l-31 31c-8 8-20 8-28 0-8-7-8-19 0-27l32-32c19-20 51-23 74-7l96 66c7 5 18 4 24-3l150-149c8-8 8-20 0-28-96-96-252-96-348 0l-304 304c-46 46-72 108-72 174s26 128 72 174c4 4 9 6 14 6 5 0 10-2 14-6l149-150c7-6 8-17 3-24l-66-96c-16-23-13-55 7-75l48-47c7-8 20-8 27 0 8 8 8 20 0 28l-47 47c-7 7-8 17-2 25l65 95c16 24 13 55-7 75l-150 150c-23 22-60 22-83 0-111-112-111-292 0-404l304-304c56-55 129-83 202-83 73 0 146 28 202 83 22 23 22 60 0 83z m-528 354l-118 118c-8 8-20 8-28 0-7-7-7-20 0-27l119-119c3-4 8-6 13-6 5 0 10 2 14 6 8 8 8 20 0 28z m453-454l-124 125c-8 8-20 8-28 0-7-7-7-20 0-27l125-125c4-4 9-6 14-6 5 0 10 2 13 6 8 7 8 20 0 27z" horiz-adv-x="1000" />

<glyph glyph-name="tick" unicode="&#xe85c;" d="M0-45v706c0 28 22 50 50 50h522 105l-100-99h-5-472v-607h607v109 148l99 100v-248-159c0-28-22-50-50-50h-706c-28 0-50 22-50 50z m434 382l-107 106c-29 30-78 30-108 0-14-14-22-33-22-54s8-39 22-54l161-160c29-30 78-30 108 0l490 490c14 14 22 33 22 54 0 20-8 39-22 54-30 30-79 30-109 0l-435-436z" horiz-adv-x="1000" />

<glyph glyph-name="phone-call-1" unicode="&#xe85d;" d="M790 231c-20 21-45 32-71 32-26 0-51-11-72-32l-67-67c-5 3-11 6-16 9-8 4-15 7-21 11-62 40-119 91-174 158-26 34-44 62-57 90 18 16 34 32 49 48 6 6 12 12 18 18 44 45 44 102 0 146l-58 58c-6 6-13 13-19 20-13 13-26 27-40 39-20 20-45 31-71 31s-50-11-71-31c-1 0-1 0-1 0l-72-73c-27-27-42-60-45-98-6-61 13-119 27-156 34-93 85-178 161-270 93-110 204-197 331-259 48-23 113-50 186-55 4 0 9 0 13 0 49 0 90 17 122 52 0 1 0 1 0 1 11 14 24 26 37 39 10 8 19 17 28 27 21 22 32 47 32 73 0 26-11 51-33 72l-116 117z m76-223c0 0 0 0 0 0-8-9-17-17-26-26-14-13-27-26-41-42-21-23-46-33-79-33-3 0-6 0-10 0-62 4-121 28-164 49-120 58-225 140-312 244-72 87-120 167-152 253-19 53-27 94-23 133 2 24 11 45 29 62l72 72c10 10 21 15 32 15 13 0 24-8 31-15 0 0 0 0 0 0 13-12 25-25 38-38 7-7 14-13 20-20l58-58c22-22 22-43 0-65-6-7-12-13-18-19-18-18-35-35-53-51-1-1-1-1-1-1-18-18-15-36-11-48 0-1 0-1 0-2 15-36 36-70 69-111l0 0c58-72 119-128 187-171 9-5 18-10 26-14 8-4 15-7 21-11 1-1 2-1 3-2 7-3 14-5 20-5 18 0 29 11 33 15l72 72c7 7 18 16 32 16 13 0 23-9 30-16 0 0 0 0 0 0l117-117c21-21 21-43 0-66z m-326 604c56-9 106-35 146-75s66-91 76-146c2-14 14-24 28-24 1 0 3 1 5 1 15 2 26 17 23 33-11 67-43 128-91 176s-110 80-177 91c-15 3-30-7-33-23s8-30 23-33z m459-203c-19 110-71 210-151 290s-180 132-290 151c-15 2-30-8-33-24-2-15 8-30 24-33 98-16 188-63 259-134 72-71 118-161 135-259 2-14 14-24 28-24 2 0 3 0 5 0 15 3 26 18 23 33z" horiz-adv-x="1000" />

<glyph glyph-name="comment-alt" unicode="&#xe85e;" d="M1179 385q0-126-79-233t-215-170-296-62q-122 0-234 39l2-3-357-107q44 59 71 126t31 106l4 38q-106 120-106 266 0 126 79 233t215 169 295 62 296-62 215-169 79-233z" horiz-adv-x="1179" />

<glyph glyph-name="comment" unicode="&#xe85f;" d="M1000 350q0-97-67-179t-182-130-251-48q-39 0-81 4-110-97-257-135-27-8-63-12-10-1-17 5t-10 16v1q-2 2 0 6t1 6 2 5l4 5t4 5 4 5q4 5 17 19t20 22 17 22 18 28 15 33 15 42q-88 50-138 123t-51 157q0 73 40 139t106 114 160 76 194 28q136 0 251-48t182-130 67-179z" horiz-adv-x="1000" />

<glyph glyph-name="close-circular-button-symbol" unicode="&#xe860;" d="M679 529c-13 12-33 12-45 0l-134-135-133 133c-12 12-32 12-44 0-12-12-12-32 0-44l133-133-134-133c-12-12-12-32 0-45s33-12 45 0l133 134 133-133c12-12 32-12 44 0 12 13 12 32 0 44l-133 133 135 134c12 12 12 32 0 45z m-179 321c-276 0-500-224-500-500s224-500 500-500c276 0 500 224 500 500s-224 500-500 500z m0-938c-242 0-437 196-437 438 0 242 195 438 437 438 242 0 438-196 438-438 0-242-196-438-438-438z" horiz-adv-x="1000" />

<glyph glyph-name="check-mark-1" unicode="&#xe861;" d="M950 992l-983 0c-60 0-109-49-109-109l0-983c0-60 49-109 109-109l983 0c60 0 109 49 109 109l0 983c0 60-49 109-109 109z m-90-385l-472-472c-11-11-25-16-39-16s-28 5-38 16l-254 253c-11 11-11 28 0 39l39 39c10 10 28 10 38 0l215-215 434 433c10 11 28 11 38 0l39-39c10-10 10-28 0-38z" horiz-adv-x="1000" />

<glyph glyph-name="download-solid" unicode="&#xe862;" d="M422 850h156c26 0 47-21 47-47v-328h171c35 0 52-42 28-67l-297-297c-15-14-39-14-54 0l-297 297c-25 25-7 67 28 67h171v328c0 26 21 47 47 47z m578-734v-219c0-26-21-47-47-47h-906c-26 0-47 21-47 47v219c0 26 21 47 47 47h286l96-96c39-39 103-39 142 0l96 96h286c26 0 47-21 47-47z m-242-172c0 21-18 39-39 39s-39-18-39-39 17-39 39-39 39 17 39 39z m125 0c0 21-18 39-39 39s-39-18-39-39 17-39 39-39 39 17 39 39z" horiz-adv-x="1000" />

<glyph glyph-name="news" unicode="&#xe863;" d="M852-131v646c0 10-8 19-19 19h-34v297c0 10-9 19-19 19h-707c-11 0-20-9-20-19v-297h-33c-11 0-20-9-20-19v-646c0 0-1-19 20-19h813c19 0 19 19 19 19z m-64 496h25v-452l-257 229z m25 130v-91h-14v91z m-721 316h668v-418l-261-252c-41-39-105-39-145 0l-262 252z m-53-446h26l232-223-258-229z m14 130v-91h-14v91z m18-606l254 226 2-2c28-27 63-40 99-40 36 0 72 13 100 40l2 2 254-226z m0 0m334 465h-198c-11 0-20 9-20 19v113c0 11 9 19 20 19h198c11 0 20-8 20-19v-113c0-10-9-19-20-19z m-179 39h160v73h-160z m0 0m420 54h-148c-11 0-19 9-19 19 0 11 8 20 19 20h148c11 0 19-9 19-20 0-10-8-19-19-19z m0 0m0-73h-148c-11 0-19 8-19 19 0 11 8 20 19 20h148c11 0 19-9 19-20 0-11-8-19-19-19z m0 0m-71-98c-5 0-10 3-14 6-1 1-2 2-2 3-1 1-2 2-2 4-1 1-1 2-1 3-1 1-1 3-1 4 0 1 0 3 1 4 0 1 0 2 1 3 0 2 1 3 2 4 0 1 1 2 2 3 4 4 11 6 18 5 1 0 2 0 3-1s3-1 4-2c1 0 2-1 3-2 0-1 1-2 2-3 1-1 1-2 2-4 0-1 1-2 1-3s0-3 0-4c0-1 0-3 0-4 0-1-1-2-1-3-1-2-1-3-2-4-1-1-2-2-2-3-1-1-2-2-3-2-1-1-3-2-4-2s-2-1-3-1c-2 0-3-1-4-1z m0 0m-83 0h-214c-11 0-20 9-20 20 0 11 9 20 20 20h214c11 0 19-9 19-20 0-11-8-20-19-20z m0 0m-214 349l-31 57v-56c0-5-6-8-12-8-7 0-13 3-13 8v104c0 5 6 8 13 8 9 0 12-1 18-13l27-51v56c0 5 6 8 13 8 6 0 12-3 12-8v-104c0-5-6-8-12-8-6 0-11 1-15 7z m0 0m70 63h25c5 0 8-5 8-10 0-5-3-10-8-10h-25v-28h44c5 0 8-5 8-11 0-5-2-11-8-11h-58c-5 0-11 3-11 8v104c0 5 6 8 11 8h58c6 0 8-6 8-11 0-6-3-12-8-12h-44z m0 0m171-62c-2-6-9-9-17-9-7 0-15 3-16 9l-9 38-8-38c-2-6-9-9-17-9-7 0-15 3-17 9l-32 99c0 1 0 2 0 2 0 6 9 11 16 11 4 0 7-2 8-5l25-84 13 55c1 5 7 7 12 7s12-2 13-7l12-55 25 84c1 3 4 5 8 5 8 0 17-5 17-11 0 0 0-1 0-2z m0 0m91 24c0 20-52 17-52 55 0 24 22 34 42 34 9 0 33-2 33-15 0-4-3-13-10-13-6 0-9 6-23 6-11 0-16-5-16-10 0-16 52-13 52-54 0-24-18-36-41-36-22 0-40 10-40 21 0 5 5 14 12 14 7 0 12-13 27-13 8 0 16 3 16 11z m0 0m-42-106h-283c-11 0-20 8-20 19s9 20 20 20h283c10 0 19-9 19-20s-9-19-19-19z m0 0" horiz-adv-x="1000" />

<glyph glyph-name="left-quote-1" unicode="&#xe864;" d="M239 469l-2 0c-21 1-39-16-40-38 0-21 17-39 38-40l3 0c84-2 153-72 153-156 0-86-70-156-157-156s-156 70-156 156c0 107 26 207 76 295 38 66 76 101 77 101 16 15 18 39 3 55-14 17-39 18-55 4-2-2-46-42-91-118-40-69-88-184-88-337 0-129 105-235 234-235s235 106 235 235c0 62-24 120-67 164-44 44-101 69-163 70z m694-70c-43 44-101 69-163 70l-1 0c-22 1-40-16-40-38s16-39 38-40l2 0c84-2 153-72 153-156 0-86-70-156-156-156s-157 70-157 156c0 107 26 207 76 295 38 66 77 101 77 101 16 15 18 39 4 55-15 17-39 18-55 4-2-2-47-42-91-118-41-69-89-184-89-337 0-129 105-235 235-235s234 106 234 235c0 62-24 120-67 164z" horiz-adv-x="1000" />

<glyph glyph-name="calendar-2" unicode="&#xe865;" d="M545 139c0-43 35-78 78-78h92c43 0 78 35 78 78v92c0 43-35 78-78 78h-92c-43 0-78-35-78-78v-92z m78 92h92l0-92c0 0 0 0 0 0h-92v92z m338-68c22 0 39 17 39 39v414c0 86-70 156-156 156h-51v39c0 22-17 39-39 39-22 0-39-17-39-39v-39h-178v39c0 22-17 39-39 39s-39-17-39-39v-39h-176v39c0 22-17 39-39 39s-39-17-39-39v-39h-49c-86 0-156-70-156-156v-610c0-86 70-156 156-156h688c86 0 156 70 156 156 0 22-17 39-39 39-22 0-39-17-39-39 0-43-35-78-78-78h-688c-43 0-78 35-78 78v610c0 43 35 78 78 78h49v-39c0-22 18-39 39-39s39 17 39 39v39h176v-39c0-22 18-39 39-39 22 0 39 17 39 39v39h178v-39c0-22 17-39 39-39 22 0 39 17 39 39v39h51c43 0 78-35 78-78v-414c0-22 17-39 39-39z" horiz-adv-x="1000" />

<glyph glyph-name="user-2" unicode="&#xe866;" d="M854 704c-95 94-220 146-354 146s-259-52-354-146c-94-95-146-220-146-354s52-259 146-354c95-94 220-146 354-146s259 52 354 146c94 95 146 220 146 354s-52 259-146 354z m-637-692c17 142 139 251 283 251 76 0 148-29 202-83 45-46 74-105 81-168-77-65-175-103-283-103s-206 38-283 103z m283 312c-84 0-152 68-152 152 0 83 68 151 152 151s152-68 152-151c0-84-68-152-152-152z m333-263c-14 60-46 116-90 160-36 36-79 63-125 80 56 38 93 102 93 175 0 116-95 210-211 210s-210-94-210-210c0-73 36-137 92-175-42-15-82-39-116-71-49-46-84-105-99-169-68 78-108 179-108 289 0 243 198 441 441 441s441-198 441-441c0-110-40-211-108-289z m0 0" horiz-adv-x="1000" />

<glyph glyph-name="chat-3" unicode="&#xe867;" d="M915 251c-8 20-31 30-51 22-20-8-29-31-21-51l46-114-137 60c-10 5-21 5-31 1-47-20-97-30-149-30-209 0-349 163-349 316 0 175 157 317 349 317s350-142 350-317c0-13-1-30-4-44-3-22 12-42 33-45 22-3 42 12 45 33 3 19 4 39 4 56 0 106-45 206-126 281-81 73-188 114-302 114s-220-41-301-114c-73-67-116-154-125-247-92-61-146-158-146-263 0-66 21-128 60-181l-57-141c-6-15-2-32 9-43 7-7 17-11 27-11 5 0 11 1 16 3l164 73c42-16 86-23 131-23 1 0 2 0 3 0 65 0 128 17 183 50 50 28 90 68 119 115 27 5 54 12 81 22l209-92c5-2 11-4 16-4 10 0 20 4 27 12 12 11 15 28 9 42l-82 203z m-565-270c-1 0-1 0-2 0-40 0-78 8-114 23-10 4-21 4-31 0l-92-40 30 73c5 13 3 29-7 40-36 43-56 94-56 149 0 62 26 122 72 166 15-78 55-152 116-211 76-73 176-115 284-120-51-50-123-80-200-80z" horiz-adv-x="1000" />

<glyph glyph-name="doc" unicode="&#xe868;" d="M834 631l-214 214c-3 3-8 5-13 5h-321c-69 0-125-56-125-125v-750c0-69 56-125 125-125h214c10 0 18 8 18 18s-8 18-18 18h-214c-49 0-89 40-89 89v750c0 49 40 89 89 89h314l203-204v-421c0-10 8-18 18-18 10 0 18 8 18 18v429c0 5-2 9-5 13z m-13 5h-107c-49 0-89 40-89 89v107c0 10-8 18-18 18-10 0-18-8-18-18v-107c0-69 56-125 125-125h107c10 0 18 8 18 18 0 10-8 18-18 18z m-101-319h-434c-10 0-18-8-18-18s8-18 18-18h434c10 0 18 8 18 18s-8 18-18 18z m0 105h-434c-10 0-18-8-18-18s8-18 18-18h434c10 0 18 8 18 18s-8 18-18 18z m0 107h-434c-10 0-18-8-18-18s8-18 18-18h434c10 0 18 8 18 18s-8 18-18 18z m-220 214h-214c-10 0-18-8-18-18 0-10 8-18 18-18h214c10 0 18 8 18 18 0 10-8 18-18 18z m-127-608c-7 5-13 9-22 12-7 2-16 3-27 3h-37c-8 0-14-2-17-7-5-4-6-9-6-18v-112c0-6 0-10 1-14 2-5 4-8 8-11 3-2 9-3 15-3h37c7 0 13 0 19 1 5 1 10 3 16 5 5 2 9 5 14 10 5 5 9 11 13 18 3 6 5 14 7 23 1 7 2 17 2 26 0 29-8 52-23 67z m-29-108c-2-2-4-4-6-4-2-1-5-1-7-2-2 0-7 0-11 0h-17v93h14c8 0 15-1 21-3 6-2 10-5 13-12 3-6 6-17 6-31 0-19-5-34-13-41z m222 85c-5 12-13 23-25 29-12 7-26 11-41 11-12 0-22-2-31-7-10-4-17-9-24-17-6-7-11-16-15-26-3-11-5-22-5-35 0-12 2-23 4-33 4-11 9-19 14-27 7-7 15-14 25-18 10-4 20-6 32-6s23 2 32 6c10 4 17 10 24 18 6 8 12 17 15 27 3 10 4 21 4 34 0 17-3 32-9 44z m-36-73c-3-7-7-12-13-16-9-6-21-6-31-2-4 2-7 6-11 9-3 4-5 9-7 16-2 6-3 14-3 22s1 15 3 22c2 6 4 12 7 15 4 4 7 6 11 8 4 2 9 4 14 4 8 0 13-3 18-6 6-3 10-8 13-16 3-7 4-17 4-27 0-11-2-21-5-29z m208 13c-3 3-8 6-13 6-8 0-11-4-13-7-2-3-4-6-5-12-2-7-7-12-11-17-5-3-11-5-18-5-7 0-12 2-17 5-5 3-9 9-12 15-3 8-4 17-4 28 0 17 3 30 9 39 7 8 14 13 25 13 6 0 12-2 16-5 4-3 9-8 12-15 2-5 5-8 7-10 3-4 8-5 12-5 5 0 10 2 13 7 3 3 5 8 5 13 0 7-3 15-8 23-6 8-13 15-23 20-9 6-21 9-33 9-11 0-20-2-29-5-8-5-17-10-23-17-7-8-12-17-15-27-4-11-6-23-6-36 0-7 1-15 2-22 1-8 4-14 7-20 3-7 6-12 10-18 5-5 10-10 15-14 6-3 12-6 19-7 6-2 14-2 21-2 11 0 20 2 29 5 9 3 15 9 20 15 6 7 9 12 12 18 2 7 3 12 3 19-2 1-4 6-7 9z" horiz-adv-x="1000" />

<glyph glyph-name="file" unicode="&#xe869;" d="M963 463c0 63-25 123-70 168l-149 149c-45 45-105 70-169 70h0-268c-8 0-15-7-15-15s7-14 15-14h235c62 0 111-50 111-111v-77c0-51 42-92 93-92h76c61 0 111-50 111-111v-488c0-34-28-63-63-63h-640c-29 0-54 19-61 47l-1 91h476c64 0 116 52 116 117v31c0 8-6 15-14 15s-15-7-15-15v-31c0-49-39-88-87-88h-526c-28 0-51 23-51 52v317c14-12 32-19 51-19h526c48 0 87-39 87-88v-84c0-8 7-15 15-15s14 7 14 15v84c0 65-52 117-116 117h-477v333c0 34 28 63 63 63h18c8 0 15 6 15 14s-7 15-15 15h-18c-51 0-92-41-92-92v-200h-20c-44 0-80-37-80-81v-379c0-45 36-81 80-81h21l1-93c0-1 0-2 0-3 10-42 47-71 90-71h640c51 0 93 41 93 92z m-845 65h20v-103h-20c-28 0-51 23-51 52s23 51 51 51z m704 42h-76c-35 0-63 28-63 63v77c0 39-17 75-43 101 31-10 59-28 83-51l149-149c24-24 41-53 51-84-25 27-61 43-101 43z m-195-270c9 0 15 6 15 14s-6 15-15 15h-75c-8 0-15-7-15-15v-186c0-8 7-15 15-15s15 7 15 15v80h55c8 0 14 7 14 15s-6 15-14 15h-55v62z m-267 29c-4 0-8-2-10-4-3-3-5-7-5-11v0 0-183c0-1 0-2 1-3 0-4 1-8 4-10 3-3 6-5 10-5h0c2 0 40 1 54 1 26 0 50 12 66 33 14 19 23 46 23 74 0 65-37 108-90 108h-53z m113-108c0-45-24-77-59-78-9 0-26 0-39 0 0 21 0 60 0 78 0 16 0 57 0 79h38c29 0 60-21 60-79z m-273 109c-3 0-7-1-10-4-3-3-4-6-4-10 0 0 0 0 0 0v-188c0-8 6-15 14-15s15 7 15 15v67c12 0 29 0 38 0 38 0 68 30 68 68s-30 67-68 67h-53z m92-67c0-21-18-39-39-39-9 0-26 0-38 0 0 13 0 30 0 39 0 7 0 25 0 38h38c21 0 39-17 39-38z" horiz-adv-x="1000" />

<glyph glyph-name="arroba" unicode="&#xe86a;" d="M714-60c7-22-5-46-26-54-72-27-139-36-225-36-239 0-449 171-449 453 0 293 213 547 538 547 253 0 434-174 434-415 0-210-118-342-273-342-68 0-117 34-124 110h-3c-44-73-109-110-185-110-94 0-161 69-161 187 0 175 129 334 336 334 35 0 72-4 104-12 39-9 64-46 57-85l-33-204c-14-85-4-124 36-125 62-2 139 77 139 243 0 186-120 331-343 331-220 0-412-172-412-446 0-240 153-377 367-377 57 0 117 10 168 28 11 4 23 3 33-2 11-5 18-14 22-25l0 0z m-116 555c-12 3-26 6-45 6-95 0-169-93-169-204 0-55 24-89 71-89 54 0 110 67 123 151l20 136z" horiz-adv-x="1000" />

<glyph glyph-name="location-2" unicode="&#xe86b;" d="M799 726c-80 80-186 124-299 124s-219-44-299-124c-80-80-124-186-124-299 0-228 216-419 332-521 16-14 30-26 41-37 14-13 32-19 50-19 18 0 36 6 50 19 11 11 25 23 41 37 116 102 332 293 332 521 0 113-44 219-124 299z m-247-776c-16-14-31-27-42-38-6-5-14-5-20 0-11 11-26 24-42 38-109 96-312 275-312 477 0 201 163 364 364 364 201 0 364-163 364-364 0-202-203-381-312-477z m-52 679c-103 0-186-83-186-186s83-186 186-186 186 83 186 186-83 186-186 186z m0-314c-70 0-128 58-128 128s58 128 128 128 128-57 128-128-57-128-128-128z" horiz-adv-x="1000" />

<glyph glyph-name="time" unicode="&#xe86c;" d="M538 850c-297 0-538-241-538-538s241-538 538-538 538 241 538 538-241 538-538 538z m0-1009c-259 0-471 211-471 471s212 471 471 471 471-211 471-471-211-471-471-471z m34 740h-67v-283l178-178 47 47-158 159z" horiz-adv-x="1000" />

<glyph glyph-name="call-2" unicode="&#xe86d;" d="M920 194c-61 0-122 9-178 28-29 10-61 2-80-17l-112-85c-131 70-211 150-280 280l83 109c21 22 29 53 20 82-19 57-29 118-29 179 0 44-36 80-80 80h-184c-44 0-80-36-80-80 0-507 413-920 920-920 44 0 80 36 80 80v183c0 45-36 81-80 81z m24-264c0-13-11-24-24-24-477 0-864 387-864 864 0 13 11 24 24 24h184c14 0 25-11 25-24 0-67 10-133 31-196 3-9 0-19-9-28l-95-127c-7-8-8-20-3-29 78-153 173-248 327-327 9-5 21-4 29 3l130 98c6 6 16 8 25 5 63-20 129-31 196-31 13 0 24-11 24-25v-183z" horiz-adv-x="1000" />

<glyph glyph-name="quate" unicode="&#xe86e;" d="M0-150v460a575 575 0 0 0 49 237 558 558 0 0 0 139 190 515 515 0 0 0 201 113v-1000z m850 0v460a576 576 0 0 0 185 427 495 495 0 0 0 200 113v-1000z" horiz-adv-x="1235" />

<glyph glyph-name="plus-button" unicode="&#xe86f;" d="M961 389h-422v422c0 22-17 39-39 39-22 0-39-17-39-39v-422h-422c-21 0-39-17-39-39s18-39 39-39h422v-422c0-22 17-39 39-39s39 17 39 39v422h422c22 0 39 17 39 39 0 22-17 39-39 39z" horiz-adv-x="1000" />

<glyph glyph-name="check" unicode="&#xe870;" d="M500 850c-276 0-500-224-500-500s224-500 500-500 500 224 500 500-224 500-500 500z m0-909c-226 0-409 183-409 409s183 409 409 409 409-183 409-409-183-409-409-409z m188 586l-258-257-117 118c-18 17-47 17-65 0-17-18-17-47 0-65l150-150c9-8 20-13 32-13 0 0 0 0 0 0 12 0 24 5 33 13l289 290c18 17 18 46 0 64-18 18-47 18-64 0z" horiz-adv-x="1000" />

<glyph glyph-name="facebook-f" unicode="&#xe871;" d="M545 288l28 181h-174v117c0 49 25 98 102 98h79v154s-71 12-140 12c-143 0-236-87-236-244v-137h-159v-181h159v-438h195v438z" horiz-adv-x="625" />

<glyph glyph-name="check-mark" unicode="&#xe872;" d="M950 992l-983 0c-60 0-109-49-109-109l0-983c0-60 49-109 109-109l983 0c60 0 109 49 109 109l0 983c0 60-49 109-109 109z m-90-385l-472-472c-11-11-25-16-39-16s-28 5-38 16l-254 253c-11 11-11 28 0 39l39 39c10 10 28 10 38 0l215-215 434 433c10 11 28 11 38 0l39-39c10-10 10-28 0-38z" horiz-adv-x="1000" />

<glyph glyph-name="linkedin-in" unicode="&#xe873;" d="M196-25h-181v584h181z m-91 664c-58 0-105 48-105 106a105 105 0 0 0 210 0c0-58-47-106-105-106z m770-664h-181v284c0 68-2 155-94 155-95 0-109-74-109-150v-289h-181v584h174v-79h2c24 45 83 94 172 94 183 0 217-121 217-278v-321z" horiz-adv-x="875" />

<glyph glyph-name="quote-2" unicode="&#xe874;" d="M0 288h181l-63-313h251l68 338 1 412h-438v-437z m63 375h312v-341l-57-284h-124l63 312h-194v313z m500 62v-437h180l-62-313h251l67 338 1 412h-437z m375-403l-57-284h-124l62 312h-194v313h313v-341z" horiz-adv-x="1000" />

<glyph glyph-name="right-arrow-1" unicode="&#xe875;" d="M993 366l0 0-227 227c-8 10-22 11-32 3-9-8-11-23-2-32 0-1 1-2 2-3l189-188h-900c-13 0-23-11-23-23s10-23 23-23h900l-189-188c-9-8-11-23-2-32s22-11 32-3c1 1 1 2 2 3l227 227c9 9 9 23 0 32z" horiz-adv-x="1000" />

<glyph glyph-name="left-arrow-2" unicode="&#xe876;" d="M961 389h-827l137 136c15 16 15 40 0 56-15 15-40 15-55 0l-204-203c0 0 0 0 0 0-16-16-16-40 0-56 0 0 0 0 0 0l204-203c15-15 40-15 55 0 15 16 15 40 0 56l-137 136h827c22 0 39 17 39 39 0 22-17 39-39 39z" horiz-adv-x="1000" />

<glyph glyph-name="right-arrow-2" unicode="&#xe877;" d="M989 378c0 0 0 0 0 0l-205 203c-15 15-40 15-55 0-15-16-15-40 0-56l137-136h-827c-21 0-39-17-39-39 0-22 18-39 39-39h827l-137-136c-15-16-15-40 0-56 15-15 40-15 55 0l205 203c0 0 0 0 0 0 15 16 15 40 0 56z" horiz-adv-x="1000" />

<glyph glyph-name="blocks-with-angled-cuts-(1)" unicode="&#xe878;" d="M187 538l-187-187 0-188 0-188 188 0 187 0 0 375c0 206 0 375-1 375 0 0-84-84-187-187z m625 0l-187-187 0-188 0-188 188 0 187 0 0 375c0 206 0 375-1 375 0 0-84-84-187-187z" horiz-adv-x="1000" />

<glyph glyph-name="long-arrow-alt-right-solid" unicode="&#xe879;" d="M875 350l-225 176c0 0 4-6 0 0l-2-137h-648m0 0v-78c3 2 4 6 0 0h648v-137c155 164 61 102 0 0l227 176" horiz-adv-x="875" />

<glyph glyph-name="quote-5" unicode="&#xe87a;" d="M529-90h-48c-22 0-40 18-40 40 0 0 137 801 137 801 1 21 18 39 39 39h293c22 0 39-18 39-40 0-1-381-805-381-805-3-6-17-35-39-35z m-68 39c0-11 9-19 20-19h48c6 0 16 12 21 24 0 0 0 0 0 0l380 798c-1 10-10 18-20 18h-293c-11 0-19-9-19-20 0 0 0-1 0-1z m-322-39h-49c-22 0-39 18-39 40 0 0 137 801 137 801 0 21 17 39 39 39h293c21 0 39-18 39-40 0-1-382-805-382-805-3-6-17-35-38-35z m-69 39c1-11 9-19 20-19h49c5 0 15 12 20 24 0 0 0 0 0 0l380 798c-1 10-9 18-19 18h-293c-11 0-20-9-20-20 0 0 0-1 0-1z" horiz-adv-x="1000" />

<glyph glyph-name="quote-fnl" unicode="&#xe87b;" d="M432 672l-254 0c-22 0-39-17-39-39l0-566c0-22 17-39 39-39l78 0c28 0 38 22 39 37 0 0 176 567 176 568 0 22-18 39-39 39z m-156-602c0-1-1-2-1-3 0 0 0-5-2-10-3-7-9-10-17-10l-78 0c-11 0-20 9-20 20l0 566c0 11 9 20 20 20l254 0c10 0 18-8 19-18z m546 602l-254 0c-21 0-39-17-39-39l0-566c0-22 18-39 39-39l79 0c27 0 38 22 39 37 0 0 175 567 175 568 0 22-17 39-39 39z m-156-602c0-1 0-2 0-3 0 0 0-5-3-10-3-7-8-10-16-10l-79 0c-10 0-19 9-19 20l0 566c0 11 9 20 19 20l254 0c11 0 19-8 20-18z m0 0" horiz-adv-x="1000" />

<glyph glyph-name="right-arrow-3" unicode="&#xe87c;" d="M673 691c-13 14-36 14-50 0-14-14-14-36 0-50l256-255h-844c-19 0-35-16-35-36 0-19 16-35 35-35h844l-256-256c-14-14-14-36 0-50 14-14 37-14 50 0l316 316c15 14 15 36 0 50l-316 316z" horiz-adv-x="1000" />

<glyph glyph-name="quote-4" unicode="&#xe87d;" d="M369 681c-51-6-108-27-150-57-23-16-60-53-75-74-28-39-45-81-55-132-3-14-4-38-4-208l-1-192 182 0 181 0 0 182 0 181-115 0-116 0 2 9c8 50 33 93 71 122 31 23 66 36 107 38l22 2 0 65 0 65-21 0c-12 0-24-1-28-1z m17-65l0-34-20-3c-48-9-86-29-120-64-37-39-57-86-60-139l-1-26 116 0 115 0 0-150 0-151-150 0-151 0 1 175 0 176 6 22c18 84 68 151 141 193 34 19 82 33 119 36l5 0-1-35z m446 64c-72-9-134-40-186-91-53-54-82-116-91-191-1-11-2-88-2-199l0-181 181 0 182 0 0 182 0 181-115 0-116 0 1 10c10 65 56 123 117 147 20 7 37 11 63 12l21 2 0 65 0 65-21 0c-12 0-27-1-34-2z m23-64l0-34-21-4c-84-14-152-76-174-160-3-11-4-25-5-42l-1-26 115 0 116 0 0-150 0-151-151 0-150 0 1 177c0 174 0 176 5 195 20 91 74 160 154 200 30 15 84 30 106 29l5 0 0-34z" horiz-adv-x="1000" />

<glyph glyph-name="quote-3" unicode="&#xe87e;" d="M192 814c-105-56-178-174-188-306-10-144 27-235 133-310 44-33 92-59 107-59 58 0 2-164-79-226-63-52-63-63 4-63 154 0 427 214 508 398 44 102 52 287 15 381-27 69-105 158-177 194-75 39-242 35-323-9z m881-20c-236-150-225-515 23-630 46-22 77-49 77-70 0-52-50-140-106-183-61-48-61-61 6-61 152 0 421 208 504 390 42 91 52 304 17 393-25 65-105 154-175 190-90 48-246 35-346-29z" horiz-adv-x="1615" />

<glyph glyph-name="shopping-bag-(1)" unicode="&#xe87f;" d="M914 15l-49 480c-2 20-19 35-39 35h-650c-20 0-37-15-39-35l-51-480c-4-42 10-84 38-115 29-32 69-50 111-50h531c42 0 82 18 110 49 28 31 42 73 38 116z m-96-64c-13-15-32-23-52-23h-531c-20 0-39 9-53 24-14 15-20 35-18 55l47 445h580l45-445c2-21-4-41-18-56z m-311 899c-123 0-223-100-223-224v-135h78v135c0 81 65 146 145 146 81 0 146-65 146-146v-135h78v135c0 124-100 224-224 224z" horiz-adv-x="1000" />

<glyph glyph-name="bottom-right" unicode="&#xe880;" d="M634 152l0 263-296-296-69 69 296 296-263 0 0 98 430 0 0-430-98 0z" horiz-adv-x="1000" />

<glyph glyph-name="full-stop" unicode="&#xe881;" d="M437 293c-16 14-24 35-24 56 0 22 8 43 24 58 17 15 38 23 63 23 26 0 46-8 63-23 16-15 25-36 24-58 1-21-8-42-24-56-17-15-37-23-63-23-25 0-46 8-63 23z" horiz-adv-x="1000" />

<glyph glyph-name="check-mark-2" unicode="&#xe882;" d="M469-50a20 20 0 0 0-15 6l-386 419a20 20 0 0 0 14 32h186a20 20 0 0 0 15-6l129-149c14 30 41 79 89 140 70 90 200 221 423 340a20 20 0 0 0 22-32c-1-1-87-69-186-193-91-114-213-301-272-542a20 20 0 0 0-19-15z" horiz-adv-x="1000" />

<glyph glyph-name="pointed-star" unicode="&#xe883;" d="M641 466c-11 0-23 9-27 19l-108 333c-3 10-9 10-12 0l-108-333c-4-10-15-19-26-19h-350c-12 0-13-5-4-12l283-205c9-7 13-21 10-31l-108-333c-4-11 1-14 10-7l283 205c9 7 23 7 32 0l283-205c9-7 14-4 10 7l-108 333c-3 10 1 24 10 31l283 205c9 7 8 12-4 12h-349v0z" horiz-adv-x="1000" />

<glyph glyph-name="up-right-arrow" unicode="&#xe884;" d="M792 642h-542v-167h257l-333-333 118-118 333 333v-257h167z" horiz-adv-x="1000" />

<glyph glyph-name="phone-auricular-and-clock-delivery-symbol" unicode="&#xe885;" d="M516 817c-60-6-106-19-158-44-46-23-77-44-114-80-21-21-54-60-54-64 0-2 5-6 12-11 6-5 17-15 24-23 7-8 13-13 14-12 1 2 7 9 13 18 16 21 53 58 74 74 36 27 76 47 117 60 26 8 62 14 64 12 1-1 12-18 23-38 12-19 22-36 23-36 1 0 12 17 24 37l23 38 7-1c110-16 203-76 265-170 27-42 50-102 56-147l1-11-38-23c-21-12-38-23-38-23 0-1 17-11 38-24 43-26 40-21 34-52-16-77-61-156-119-206-14-12-42-34-48-37-3-2-2-4 1-13 4-9 5-14 5-36 0-14 0-26 0-26 4 0 50 30 68 45 21 16 61 57 78 80 38 52 68 116 80 174 9 42 12 105 7 145-26 228-219 398-448 395-15 0-31 0-34-1z m-406-217c-21-4-38-16-74-53-32-32-34-38-36-74-1-27 2-44 10-75 39-144 185-325 348-431 110-72 216-102 273-77 9 4 41 32 58 52 8 9 17 23 22 31 6 13 7 16 7 32 0 17-1 19-7 31-8 18-28 38-55 58-40 30-71 42-97 37-17-3-29-11-53-34-12-11-24-21-26-22-30-11-89 27-174 112-62 61-100 110-112 144-4 10-4 26-1 33 2 2 12 14 24 26 24 26 32 39 33 58 0 7-1 18-2 23-5 26-36 74-65 101-16 15-32 25-48 28-11 2-13 2-25 0z m1-77c9-13 16-25 16-26 0-1-5-4-11-6-24-9-41-23-47-41-4-12-5-39-3-58 1-8 2-16 2-16-2-2-19 35-23 49-4 13-4 20-4 35 1 17 2 22 7 33 4 8 8 16 11 19 4 6 35 37 36 37 0-1 7-12 16-26z m520-529c34-19 32-15 13-35-18-19-32-29-49-35-17-6-51-6-70 0-15 5-40 15-38 16 0 1 8 1 17 0 38-3 62 4 80 24 8 9 12 17 19 37 2 3 3 5 4 5 0 0 11-5 24-12z m-203 600c-9-1-18-6-23-12-11-12-14-34-6-49 5-9 117-179 123-187 8-9 19-14 32-15 11 0 20 4 137 52 140 58 134 55 134 74 0 9-1 11-6 16-6 6-8 7-18 7-10 0-22-5-110-41-54-22-99-41-101-41-1 0-28 40-61 90-32 49-61 92-63 94-9 10-25 15-38 12z" horiz-adv-x="1000" />

<glyph glyph-name="shopping-bag-2" unicode="&#xe886;" d="M999 808v1c0 2-1 3-1 4-4 9-14 15-25 15h-946c-12 0-21-6-25-15 0-1-1-2-1-4v-1c0-1-1-2-1-3v-1c0-1 0-2 0-3v-110-109-618c0-25 10-49 28-65 14-17 38-27 63-27h816c25 0 48 10 65 28 17 16 28 40 28 65v617 109 110c0 1 0 2 0 3v1c0 1 0 2-1 3z m-117-34l-5-5-78-54c-8-5-14-13-14-24v-81h-572v81c0 11-6 19-14 24l-78 54-5 5h766z m-41-136l35-25 5-4h-40v29z m-787 54v57l35-25 47-32-47-31-35-25v56z m102-53v-28h-39l4 3 35 25z m788-675c0-10-5-19-11-25-6-6-15-11-25-11h-817c-10 0-19 5-25 12-6 6-12 15-12 25v589h890v-590z m0 727v-56l-35 25-47 31 47 32 35 25v-57z m-445-571c53 0 103 21 138 57 35 35 57 84 57 138v137c0 16-12 29-28 29s-27-12-27-28v-137c0-38-16-73-41-99-25-25-60-41-99-41-38 0-73 15-99 41-24 25-41 60-41 99v136c0 16-12 28-27 28-16 0-28-12-28-28v-137c0-54 22-103 57-138 35-35 85-57 138-57z" horiz-adv-x="1000" />

<glyph glyph-name="play-button-1" unicode="&#xe887;" d="M500 850c-276 0-500-224-500-500s224-500 500-500 500 224 500 500-224 500-500 500z m0-958c-253 0-458 205-458 458s205 458 458 458 458-205 458-458-205-458-458-458z m199 476l-292 187c-6 4-14 4-21 1-7-4-11-11-11-18v-375c0-8 4-15 11-19 3-1 6-2 10-2 4 0 8 1 11 3l292 188c6 3 9 10 9 17s-3 14-9 18z m-282-167v298l232-149-232-149z" horiz-adv-x="1000" />

<glyph glyph-name="share-1" unicode="&#xe888;" d="M707 177c-48 0-91-20-121-53l-270 167c7 18 11 38 11 59 0 21-4 41-11 59l270 167c30-33 73-53 121-53 90 0 163 73 163 163 0 91-73 164-163 164-91 0-164-73-164-164 0-21 4-41 11-59l-269-167c-30 33-73 54-121 54-91 0-164-74-164-164 0-90 73-164 164-164 48 0 91 21 121 54l269-167c-7-18-11-38-11-59 0-91 73-164 164-164 90 0 163 73 163 164 0 90-73 163-163 163z m-104 509c0 58 46 104 104 104s104-46 104-104c0-57-47-104-104-104s-104 47-104 104z m-439-440c-58 0-104 47-104 104s46 104 104 104c57 0 104-47 104-104s-47-104-104-104z m439-232c0 57 46 104 104 104s104-47 104-104c0-58-47-104-104-104s-104 46-104 104z m0 0" horiz-adv-x="1000" />

<glyph glyph-name="star-1" unicode="&#xe889;" d="M493 851c4 0 8 0 12 0 8-2 14-6 20-12 48-98 94-197 140-297 104-17 208-34 313-49 10-4 17-10 21-19 0-8 0-16 0-23-5-8-10-15-17-22-70-72-141-144-212-217 16-110 33-220 51-330-1-15-8-25-21-31-8 0-16 0-24 0-92 51-184 103-277 154-92-51-185-103-277-154-8 0-16 0-24 0-13 6-20 16-21 31 18 110 36 220 52 330-71 72-141 144-211 215-7 8-13 16-19 24 0 7 0 15 0 23 4 9 12 16 22 19 104 15 208 32 312 49 46 100 93 199 140 297 6 6 13 10 20 12z" horiz-adv-x="1000" />

<glyph glyph-name="user-3" unicode="&#xe88a;" d="M411 368c66 0 123 24 170 71 47 47 71 104 71 170 0 66-24 124-71 171-47 46-104 70-170 70-66 0-124-24-170-71s-71-104-71-170c0-66 24-123 71-170 46-47 104-71 170-71z m-129 370c36 36 78 53 129 53 51 0 93-17 129-53 36-36 53-78 53-129 0-51-17-93-53-129-36-36-78-53-129-53-51 0-93 17-129 53-36 36-53 78-53 129 0 51 17 93 53 129z m0 0m550-657c-1 20-4 41-8 63-4 23-9 44-15 64-7 20-16 40-26 59-12 20-25 37-40 51-15 15-34 27-56 36-22 9-47 13-73 13-10 0-20-4-39-17-11-7-25-16-41-26-13-8-30-16-52-23-22-7-43-11-65-11-21 0-43 4-64 11-22 7-40 15-53 23-15 10-29 19-41 26-19 13-29 17-39 17-26 0-50-4-72-13-22-9-41-21-57-36-15-14-28-31-39-51-11-19-20-39-26-59-7-20-12-41-16-64-4-22-7-43-8-63-1-19-2-39-2-59 0-52 17-95 49-126 33-30 75-46 127-46h482c52 0 95 16 127 46 33 31 49 74 49 126 0 20 0 40-2 59z m-87-142c-22-21-50-30-87-30h-482c-37 0-65 9-86 30-21 20-31 47-31 83 0 19 0 37 2 55 1 17 3 37 7 57 3 20 8 39 13 56 6 16 13 33 22 48 8 15 18 28 29 38 10 10 22 18 37 23 14 6 30 9 46 9 3-1 6-3 12-7 12-8 26-16 41-26 18-11 40-21 67-30 27-9 55-13 82-13 28 0 56 4 83 13 26 9 49 19 66 30 16 10 29 18 41 26 6 4 10 6 12 7 17 0 32-3 46-9 15-5 28-13 38-23 10-10 20-23 29-38 8-15 16-32 21-48 5-17 10-36 14-56 3-20 6-40 7-57v0c1-18 2-36 2-55 0-36-10-63-31-83z m0 0" horiz-adv-x="1000" />

<glyph glyph-name="calendar-3" unicode="&#xe88b;" d="M298 786c-25-7-43-27-47-52l-1-9-37 0c-41 0-54-2-74-13-23-12-42-35-50-58-4-12-4-22-4-335 0-314 0-324 4-335 8-24 27-47 50-59 26-13 3-13 366-12l328 0 13 5c30 11 56 36 65 66 4 11 4 21 4 335 0 313 0 323-4 335-9 29-35 55-65 66-12 3-17 4-54 5l-42 0-1 9c-2 12-11 31-19 37-3 3-10 7-16 10-8 5-12 5-26 5-14 0-19 0-27-4-19-9-32-28-35-48l-1-9-125 0-125 0-1 9c-3 20-14 36-32 46-13 6-32 9-44 6z m23-43c10-4 13-12 13-38 0-15-1-25-3-30-3-7-11-12-18-12-8 0-16 5-19 12-2 5-3 15-3 30 0 26 3 34 12 38 8 4 10 4 18 0z m375 0c10-4 13-12 13-38 0-15-1-25-3-30-3-7-11-12-18-12-8 0-16 5-19 12-2 5-3 15-3 30 0 26 3 34 12 38 8 4 10 4 18 0z m-445-68c2-20 15-38 35-48 7-4 11-4 27-4 15 0 19 0 27 4 19 10 32 28 34 48l2 9 124 0 124 0 2-9c2-20 15-38 35-48 12-6 41-6 54 0 19 10 32 28 34 48l2 9 37 0c29-1 39-2 47-5 12-5 29-20 34-32 5-10 5-13 6-60l0-49-375 0-375 0 0 49c1 46 1 50 6 59 4 11 15 22 25 29 11 7 25 9 60 9l33 0 2-9z m624-426l-1-248-5-10c-6-13-22-28-35-33-10-3-26-4-334-4-308 0-324 1-334 4-13 5-29 20-35 33l-5 10-1 248 0 248 375 0 375 0 0-248z m-641 160c-9-3-17-11-21-20-4-7-4-11-4-52l1-43 6-9c3-4 10-10 15-13 8-5 9-5 50-5 42 0 42 0 51 5 5 3 11 9 15 13l6 9 0 41c1 46 0 52-10 63-11 13-17 15-62 14-31 0-41 0-47-3z m79-69l0-31-32 0-31 0 0 31 0 32 31 0 32 0 0-32z m140 69c-9-3-17-11-22-20-3-7-3-11-3-52l1-43 6-9c3-4 10-10 14-13 9-5 10-5 51-5 41 0 42 0 51 5 5 3 11 9 14 13l6 9 1 41c1 46 0 52-10 63-11 13-17 15-62 14-31 0-42 0-47-3z m78-69l0-31-31 0-31 0 0 31 0 32 31 0 31 0 0-32z m141 69c-9-3-17-11-22-20-3-7-4-11-3-52l1-43 5-9c4-4 10-10 15-13 9-5 10-5 51-5 41 0 42 0 51 5 4 3 11 9 14 13l6 9 1 41c0 46-1 52-10 63-12 13-17 15-62 14-32 0-42 0-47-3z m78-69l0-31-31 0-31 0 0 31 0 32 31 0 31 0 0-32z m-510-158c-14-4-23-12-28-24-2-6-3-16-3-48 0-45 1-50 13-61 11-10 17-11 60-11 44 0 50 1 61 14 10 11 11 17 10 63l0 41-6 9c-4 5-10 10-15 13-8 5-10 5-48 5-21 1-41 0-44-1z m73-72l0-31-32 0-31 0 0 31 0 31 31 0 32 0 0-31z m146 72c-14-4-23-12-28-24-3-6-3-16-3-48 0-45 1-50 13-61 11-10 16-11 59-11 45 0 51 1 62 14 10 11 11 17 10 63l-1 41-6 9c-3 5-9 10-14 13-9 5-10 5-48 5-22 1-41 0-44-1z m72-72l0-31-31 0-31 0 0 31 0 31 31 0 31 0 0-31z m147 72c-14-4-23-12-29-24-2-6-2-16-2-48 0-45 1-50 13-61 10-10 16-11 59-11 45 0 50 1 62 14 9 11 10 17 10 63l-1 41-6 9c-3 5-10 10-14 13-9 5-11 5-48 5-22 1-41 0-44-1z m72-72l0-31-31 0-31 0 0 31 0 31 31 0 31 0 0-31z" horiz-adv-x="1000" />

<glyph glyph-name="black-arrow" unicode="&#xe88c;" d="M969 819a645 645 0 0 0-454-189 642 642 0 0 0-261 54 645 645 0 0 0-197 135m912 0a645 645 0 0 1 0-912m0 912l-938-938" horiz-adv-x="1000" />

<glyph glyph-name="yoge-star" unicode="&#xe88d;" d="M875 698l120-212-365-136 365-133-123-221-303 242 59-388h-248l54 388-306-247-128 226 362 136-359 133 119 215 312-239-56 388h250l-59-388z" horiz-adv-x="995" />

<glyph glyph-name="yoge-quote" unicode="&#xe88e;" d="M556 734l-228-424-132-36a277 277 0 0 0 53 71q31 29 66 29 84 0 153-71t69-176q0-113-77-195t-190-82q-109 0-190 80t-80 197q0 44 19 107t71 159l248 457z m692 0l-229-424-131-36a300 300 0 0 0 51 71q29 29 68 29 83 0 152-71t69-176q0-113-78-195t-192-82q-106 0-186 80t-81 197q0 45 20 107t70 159l248 457z" horiz-adv-x="1248" />

<glyph glyph-name="download" unicode="&#xe88f;" d="M487 757c20 4 34-2 42-19 1-178 2-356 2-533 77 67 153 135 230 204 13 6 26 6 39 0 13-14 15-29 7-46-93-82-185-165-277-247-6-6-12-10-19-14-11-2-22-1-31 4-96 86-193 171-289 257-8 17-6 32 7 46 13 6 26 6 39 0 77-69 153-137 230-204 0 177 1 355 2 533 4 9 10 15 18 19z m-375-750c258 1 516 0 774-1 13-5 20-15 19-30 1-15-6-25-19-30-258-2-516-2-774 0-13 5-20 15-19 30-1 15 6 25 19 31z" horiz-adv-x="1000" />

<glyph glyph-name="call-3" unicode="&#xe890;" d="M974 79l-203 135c-25 17-60 11-79-13l-59-76c-7-10-21-13-32-7l-11 6c-37 21-84 46-177 139s-118 140-139 177l-6 11c-6 11-3 25 7 32l76 59c24 19 30 54 13 79l-135 203c-18 26-53 34-80 18l-84-51c-27-16-46-41-55-71-30-111-7-303 275-585 225-225 392-285 507-285 26 0 53 3 78 10 30 9 55 28 71 55l51 84c16 27 8 62-18 80z m-11-63l-51-84c-11-19-29-34-51-40-102-28-281-5-552 267s-295 450-267 552c7 22 21 40 40 51l85 51c11 7 26 4 34-8l73-110 62-92c7-11 5-26-6-34l-76-59c-23-18-29-50-15-75l6-11c21-39 48-88 144-185 97-96 146-123 185-144l11-6c25-14 57-8 75 15l58 76c9 11 24 13 35 6l202-135c12-8 15-23 8-35z m-396 667c156 0 283-127 283-283 0-9 7-17 17-17s16 8 16 17c0 175-142 316-316 317-10 0-17-8-17-17s7-17 17-17z m0-100c101 0 183-82 183-183 0-9 7-17 17-17 9 0 16 8 16 17 0 120-97 217-216 217-10 0-17-8-17-17s7-17 17-17z m0-100c46 0 83-37 83-83 0-9 7-17 17-17s16 8 16 17c0 64-52 117-116 117-10 0-17-8-17-17s7-17 17-17z" horiz-adv-x="1000" />

<glyph glyph-name="arrow-1" unicode="&#xe891;" d="M872 297l-872-447v130l741 368v4l-741 368v130l872-447z" horiz-adv-x="872" />

<glyph glyph-name="clock-3" unicode="&#xe892;" d="M433 850c-239 0-433-194-433-433s194-433 433-433 433 194 433 433-194 433-433 433z m0-812c-209 0-379 170-379 379s170 379 379 379 379-170 379-379-170-379-379-379z m27 650h-54v-282l170-170 38 38-154 154z" horiz-adv-x="1000" />

<glyph glyph-name="document" unicode="&#xe893;" d="M740 643c-45 0-81 37-81 81v126h-496c-15 0-28-13-28-28v-944c0-15 13-28 28-28h675c15 0 27 13 27 28v765h-125z m-370-297c-12-11-29-16-54-16h-36v-55c0-33-39-33-39 0v150c0 18 7 24 25 24 22 0 67 1 85-3 48-13 48-77 19-100z m216-25c-6-34-28-59-63-65l-75-2c-21 0-25 9-25 29v142c0 18 7 24 24 24 24 0 65 2 86-3 50-13 64-76 53-125z m168 102c-3-3-8-4-14-4h-78v-50h66c24 0 24-30 0-30h-66v-64c0-28-25-28-33-19-4 5-6 11-6 19v150c0 18 8 24 24 24h93c21 0 21-19 14-26z m-447-3h-26v-60h-1c28 0 70-6 70 30 0 24-17 30-43 30z m181-4h-26v-131c16 0 43-1 57 3 37 13 34 85 21 107-12 19-29 21-52 21z m252 275h91l-125 125v-91c0-20 15-34 34-34z" horiz-adv-x="1000" />

<glyph glyph-name="quotes" unicode="&#xe894;" d="M203 526c-52-96-100-187-107-204-30-70-38-141-20-192 33-98 133-156 233-136 71 16 135 81 151 155 18 90-22 179-99 214-15 7-27 13-28 13-1 1 27 54 61 120 35 65 62 119 62 120-2 1-128 70-146 79l-12 6-95-175z m169 118l64-35-8-15c-4-9-30-58-58-110-28-52-51-98-52-103-3-13 0-16 31-30 68-31 103-93 98-171-4-57-31-107-75-140-35-25-58-32-108-32-39 0-44 1-68 12-52 25-87 63-104 113-12 33-11 90 2 134 14 48 27 75 122 249 99 182 88 162 91 162 1 0 30-16 65-34z m301-124c-53-99-101-191-107-205-29-70-35-135-18-185 33-98 133-156 233-136 71 16 135 81 151 155 19 95-26 187-108 219-10 4-18 8-19 8-1 0 28 54 63 120l64 120-63 33c-35 19-71 38-81 43l-18 9-97-181z m171 124c36-19 64-36 64-37 0-1-21-42-48-91-70-132-73-137-70-145 1-5 11-11 27-17 20-7 31-15 53-38 40-39 48-60 48-122 0-38-2-50-9-68-20-50-65-95-110-111-15-5-33-7-63-7-39 0-44 1-68 12-74 36-112 94-112 172 0 64 14 103 87 238 93 173 134 248 136 248 1 0 31-16 65-34z" horiz-adv-x="1000" />

<glyph glyph-name="twitter-2" unicode="&#xe895;" d="M593 427l364 423h-86l-316-368-253 368h-291l382-556-382-444h86l334 388 267-388h291l-396 577z m-118-138l-39 56-308 440h133l248-355 39-56 323-462h-132l-264 377z" horiz-adv-x="1000" />

<glyph glyph-name="sparkle-(1)" unicode="&#xe8b6;" d="M491 742c-3-2-8-5-9-9-2-2-11-34-21-68-10-35-21-72-26-83-30-74-93-137-168-167-10-4-48-16-85-27-71-20-75-22-77-34-2-8 3-19 11-22 3-2 35-11 70-21 35-10 71-21 81-26 75-30 138-93 168-167 5-11 16-47 26-82 10-35 19-67 21-70 3-8 14-13 22-12 12 3 14 7 34 78 20 71 29 94 43 120 32 54 83 102 138 127 21 10 38 16 106 35 64 18 68 20 71 32 1 7-3 18-9 21-2 1-32 10-66 20-84 24-100 30-130 48-57 36-102 88-126 148-4 10-16 47-26 82-10 34-19 66-21 68-2 6-13 12-18 12-2-1-6-2-9-3z" horiz-adv-x="1000" />

<glyph glyph-name="pdf-file-format-symbol" unicode="&#xe8b8;" d="M291 338c0 27-18 43-51 43-14 0-23-2-28-3v-86c6-2 13-2 22-2 36 0 57 18 57 48z m204 42c-14 0-24-2-30-3v-191c6-2 15-2 24-2 59 0 99 33 99 103 0 61-36 93-93 93z m392 112h-24v116c0 1 0 2 0 2 0 5-2 10-5 13l-193 220c0 0 0 0 0 0-1 2-3 3-4 4 0 0-1 0-1 1-1 0-3 1-4 1 0 0-1 0-1 0-2 1-3 1-5 1h-473c-22 0-40-18-40-39v-319h-24c-31 0-56-25-56-56v-291c0-31 25-56 56-56h24v-200c0-21 18-39 40-39h647c21 0 39 18 39 39v200h24c31 0 56 25 56 56v291c0 31-25 56-56 56z m-710 319h454v-201c0-11 9-19 19-19h174v-99h-647v319z m481-522c0-56-20-95-49-119-31-25-78-37-135-37-34 0-58 2-75 4v288c24 3 56 6 90 6 55 0 91-10 119-32 31-22 50-58 50-110z m-511-153v289c20 3 49 6 89 6 41 0 70-8 90-24 18-15 31-39 31-68 0-28-10-53-27-69-23-21-56-31-95-31-9 0-17 0-23 1v-104h-65v0z m677-236h-647v189h647v-189z m56 474h-112v-67h105v-54h-105v-117h-67v292h179v-54z" horiz-adv-x="1000" />

<glyph glyph-name="right-(1)" unicode="&#xe8ba;" d="M524 686c-20-9-29-32-20-52 2-5 39-43 111-115l108-107-277-1c-307-2-281 0-295-14-8-9-10-15-10-28 0-16 9-29 24-36 6-2 38-2 283-2l276 0-108-108c-59-60-109-111-111-115-6-11-5-27 2-38 11-17 34-24 51-15 11 6 295 290 298 299 4 9 4 23 1 31-3 8-292 296-301 301-10 5-22 5-32 0z" horiz-adv-x="1000" />

<glyph glyph-name="play-button" unicode="&#xe8bc;" d="M916 391l-784 453a47 47 0 0 1-71-41v-906a47 47 0 0 1 71-41l784 453a47 47 0 0 1 0 82z m-793-467v852l739-426z" horiz-adv-x="1000" />

<glyph glyph-name="search" unicode="&#xe8c4;" d="M643 386q0 103-73 176t-177 74-177-74-73-176 73-177 177-73 177 73 73 177z m286-465q0-29-22-50t-50-21q-30 0-50 21l-191 191q-100-69-223-69-80 0-153 31t-125 84-84 125-31 153 31 152 84 126 125 84 153 31 153-31 125-84 84-126 31-152q0-123-69-223l191-191q21-21 21-51z" horiz-adv-x="928.6" />

<glyph glyph-name="cart-bag" unicode="&#xe8c5;" d="M74 848c-2-2-6-5-8-8-4-6-4-8-5-73l-1-67-8 0c-5 0-12-2-15-3-12-7-12 21-12-373 0-325 1-360 4-373 10-45 41-80 85-95l16-5 365-1c407 0 379-1 409 14 23 11 47 35 58 57 13 29 13 0 13 402l0 363-6 6c-5 6-6 7-21 7l-16 1 0 66c0 73-1 75-12 81-5 3-54 3-423 3-328 0-419-1-423-2z m74-64c18-11 33-21 32-22 0-1-16-10-33-20-18-11-35-21-37-22l-4-3 0 44c0 42 0 44 3 44 2 0 20-9 39-21z m640 19c-2-2-11-8-21-13-18-11-23-17-23-27 0-11 6-16 46-40l39-23-332 0c-185 0-331 0-330 1 1 1 18 12 37 23 19 12 37 23 40 26 5 6 6 21 1 27-2 2-12 9-22 15-10 7-19 12-20 12 0 1 132 1 294 1 246 0 294 0 291-2z m99-41c0-23-1-43-2-43-2 0-74 44-73 45 3 3 69 41 71 41 4 0 4-3 4-43z m42-455l0-349-7-14c-9-19-22-32-41-41l-15-7-366 0-366 0-15 7c-19 9-32 22-41 41l-7 14 0 349-1 348 430 0 430 0-1-348z m-719 213c-19-5-38-21-46-39-7-13-6-40 0-53 6-13 19-26 31-33l11-5 5-18c9-32 19-54 37-81 42-63 111-108 190-125 18-4 26-4 63-4 40 0 45 0 66 5 113 27 199 108 226 215 2 8 3 9 13 14 12 6 23 17 30 32 4 9 5 13 5 28 0 19-4 30-17 44-26 28-69 28-97 0-16-16-22-46-14-68 5-13 20-31 29-35 4-2 6-4 6-6 0-7-10-34-20-53-34-66-97-112-176-129-28-6-76-6-104 0-96 21-165 82-193 170l-5 14 9 5c27 16 39 50 28 80-6 15-24 34-38 39-12 4-29 5-39 3z m24-46c8-4 12-10 12-20 0-13-7-20-21-20-11 0-15 2-19 10-6 11-1 25 9 30 9 4 13 4 19 0z m550 0c8-4 13-11 13-19 0-8-5-16-13-20-9-4-13-4-20 2-14 9-14 28 0 36 8 5 12 5 20 1z" horiz-adv-x="1000" />

<glyph glyph-name="check-square-regular" unicode="&#xe8cf;" d="M781 788h-687c-52 0-94-42-94-94v-688c0-52 42-94 94-94h687c52 0 94 42 94 94v688c0 52-42 94-94 94z m0-782h-687v688h687v-688z m-70 472l-337-334c-9-9-24-9-33 0l-177 179c-9 9-9 24 0 33l44 44c9 9 24 9 33 0l117-118 276 274c9 9 24 9 33 0l44-44c10-10 9-24 0-34z" horiz-adv-x="875" />

<glyph glyph-name="registered-solid" unicode="&#xe8d0;" d="M557 445c0-37-19-56-55-56h-58v110h45c56 0 68-17 68-54z m427-95c0-267-216-484-484-484s-484 217-484 484 217 484 484 484 484-216 484-484z m-274-204c-91 166-85 154-87 158 45 30 74 84 74 146 0 106-62 174-206 174h-138c-26 0-47-21-47-47v-454c0-25 21-46 47-46h44c26 0 47 21 47 46v140h49l87-162a47 47 0 0 1 41-24h48c35 0 58 38 41 69z" horiz-adv-x="1000" />

<glyph glyph-name="black-arrow-1" unicode="&#xe8dd;" d="M57 817l-31-32 41-35c65-54 145-99 230-128 64-22 97-28 198-29 66 0 140 3 163 8 40 8 23-11-308-343l-350-350 28-30 30-28 350 350c332 331 351 348 343 308-5-23-8-97-8-163 1-101 7-134 29-198 29-85 74-165 128-230l35-41 32 31 33 31-25 27c-15 14-43 56-64 90-129 214-110 486 47 685l41 52-27 29-28 28-27-21c-60-46-139-95-187-114-72-28-203-46-275-37-123 15-265 76-340 148l-27 25-31-33z" horiz-adv-x="1000" />

<glyph glyph-name="share-2" unicode="&#xe8e0;" d="M774 227c-58 0-110-26-145-68l-225 128c7 20 11 41 11 63 0 22-4 43-11 63l225 128c35-42 87-68 145-68 104 0 189 84 189 188 0 104-85 189-189 189-104 0-188-85-188-189 0-22 3-43 10-63l-225-128c-35 42-87 69-145 69-104 0-189-85-189-189 0-104 85-189 189-189 58 0 110 27 145 69l225-128c-7-20-10-41-10-63 0-104 84-189 188-189 104 0 189 85 189 189 0 104-85 188-189 188z m0 557c68 0 123-55 123-123 0-67-55-122-123-122-67 0-122 55-122 122 0 68 55 123 122 123z m-548-557c-68 0-123 55-123 123 0 68 55 123 123 123 68 0 123-55 123-123 0-68-55-123-123-123z m548-311c-67 0-122 55-122 123 0 67 55 122 122 122 68 0 123-55 123-122 0-68-55-123-123-123z" horiz-adv-x="1000" />

<glyph glyph-name="quotation" unicode="&#xe8e7;" d="M910 490l-215 0 0 62c0 36 30 65 65 65l83 0 0 160-83 0c-124 0-225-101-225-225l0-437 375 0z m-48-327l-279 0 0 389c0 98 80 177 177 177l35 0 0-64-35 0c-62 0-113-50-113-113l0-110 215 0z m0 0m-397-48l0 375-215 0 0 62c0 36 29 65 65 65l83 0 0 160-83 0c-124 0-225-101-225-225l0-437z m-327 437c0 98 79 177 177 177l35 0 0-64-35 0c-62 0-113-50-113-113l0-110 215 0 0-279-279 0z m0 0" horiz-adv-x="1000" />

<glyph glyph-name="twitter" unicode="&#xf099;" d="M904 622q-37-54-90-93 0-8 0-23 0-73-21-145t-64-139-103-117-144-82-181-30q-151 0-276 81 19-2 43-2 126 0 224 77-59 1-105 36t-64 89q19-3 34-3 24 0 48 6-63 13-104 62t-41 115v2q38-21 82-23-37 25-59 64t-22 86q0 49 25 91 68-83 164-133t208-55q-5 21-5 41 0 75 53 127t127 53q79 0 132-57 61 12 115 44-21-64-80-100 52 6 104 28z" horiz-adv-x="928.6" />

<glyph glyph-name="right-circled" unicode="&#xf0a9;" d="M717 350q0 15-10 25l-51 51-202 202q-10 10-25 10t-25-10l-51-51q-10-10-10-25t10-25l106-106h-280q-15 0-25-10t-11-25v-72q0-14 11-25t25-10h280l-106-106q-10-10-10-25t10-25l51-51q10-10 25-10t25 10l202 202 51 51q10 10 10 25z m140 0q0-117-57-215t-156-156-215-58-216 58-155 156-58 215 58 215 155 156 216 58 215-58 156-156 57-215z" horiz-adv-x="857.1" />

<glyph glyph-name="menu" unicode="&#xf0c9;" d="M857 100v-71q0-15-10-25t-26-11h-785q-15 0-25 11t-11 25v71q0 15 11 25t25 11h785q15 0 26-11t10-25z m0 286v-72q0-14-10-25t-26-10h-785q-15 0-25 10t-11 25v72q0 14 11 25t25 10h785q15 0 26-10t10-25z m0 285v-71q0-14-10-25t-26-11h-785q-15 0-25 11t-11 25v71q0 15 11 26t25 10h785q15 0 26-10t10-26z" horiz-adv-x="857.1" />

<glyph glyph-name="gplus" unicode="&#xf0d5;" d="M802 341q0-117-49-207t-138-142-206-51q-83 0-159 32t-131 87-87 131-32 159 32 159 87 131 131 87 159 32q160 0 274-107l-111-107q-65 63-163 63-69 0-127-34t-92-94-34-130 34-130 92-94 127-34q46 0 85 13t64 32 44 43 27 47 12 41h-232v141h386q7-36 7-68z m484 68v-118h-117v-116h-117v116h-117v118h117v116h117v-116h117z" horiz-adv-x="1285.7" />

<glyph glyph-name="mail-alt" unicode="&#xf0e0;" d="M1000 454v-443q0-37-26-63t-63-27h-822q-36 0-63 27t-26 63v443q25-27 56-49 202-137 278-192 32-24 51-37t53-27 61-13h2q28 0 61 13t53 27 51 37q95 68 278 192 32 22 56 49z m0 164q0-44-27-84t-68-69q-210-146-262-181-5-4-23-17t-30-22-29-18-32-15-28-5h-2q-12 0-27 5t-32 15-30 18-30 22-23 17q-51 35-147 101t-114 80q-35 23-65 64t-31 77q0 43 23 72t66 29h822q36 0 63-26t26-63z" horiz-adv-x="1000" />

<glyph glyph-name="comment-empty" unicode="&#xf0e5;" d="M500 636q-114 0-213-39t-157-105-59-142q0-62 40-119t113-98l48-28-15-53q-13-51-39-97 85 36 154 96l24 21 32-3q38-5 72-5 114 0 213 39t157 105 59 142-59 142-157 105-213 39z m500-286q0-97-67-179t-182-130-251-48q-39 0-81 4-110-97-257-135-27-8-63-12h-3q-8 0-15 6t-9 15v1q-2 2 0 6t1 6 2 5l4 5t4 5 4 5q4 5 17 19t20 22 17 22 18 28 15 33 15 42q-88 50-138 123t-51 157q0 97 67 179t182 130 251 48 251-48 182-130 67-179z" horiz-adv-x="1000" />

<glyph glyph-name="chat-empty" unicode="&#xf0e6;" d="M393 636q-85 0-160-29t-118-79-44-107q0-45 30-88t83-73l54-32-19-46q19 11 34 21l25 18 30-6q43-8 85-8 85 0 160 29t118 79 43 106-43 107-118 79-160 29z m0 71q106 0 197-38t143-104 53-144-53-143-143-104-197-38q-48 0-98 9-70-49-155-72-21-5-48-9h-2q-6 0-12 5t-6 12q-1 1-1 3t1 4 1 3l1 3t2 3 2 3 3 3 2 2q3 3 13 14t15 16 12 17 14 21 11 25q-69 40-108 98t-40 125q0 78 53 144t143 104 197 38z m459-652q5-14 11-25t14-21 13-16 14-17 13-14q0 0 2-2t3-3 2-3 2-3l1-3t1-3 1-4-1-3q-2-8-7-13t-12-4q-28 4-48 9-86 23-156 72-50-9-98-9-151 0-263 74 32-3 49-3 90 0 172 25t148 72q69 52 107 119t37 141q0 43-13 85 72-39 114-99t42-128q0-67-40-126t-108-98z" horiz-adv-x="1000" />

<glyph glyph-name="angle-double-right" unicode="&#xf101;" d="M332 314q0-7-5-12l-261-261q-5-5-12-5t-13 5l-28 28q-6 6-6 13t6 13l219 219-219 220q-6 5-6 12t6 13l28 28q5 6 13 6t12-6l261-260q5-5 5-13z m214 0q0-7-5-12l-260-261q-6-5-13-5t-13 5l-28 28q-5 6-5 13t5 13l219 219-219 220q-5 5-5 12t5 13l28 28q6 6 13 6t13-6l260-260q5-5 5-13z" horiz-adv-x="571.4" />

<glyph glyph-name="reply" unicode="&#xf112;" d="M1000 225q0-93-71-252-1-4-6-13t-7-17-7-12q-7-10-16-10-8 0-13 6t-5 14q0 5 1 15t2 13q3 38 3 69 0 56-10 101t-27 77-45 56-59 39-74 24-86 12-98 3h-125v-143q0-14-10-25t-26-11-25 11l-285 286q-11 10-11 25t11 25l285 286q11 10 25 10t26-10 10-25v-143h125q398 0 488-225 30-75 30-186z" horiz-adv-x="1000" />

<glyph glyph-name="folder-open-empty" unicode="&#xf115;" d="M994 331q0 19-30 19h-607q-22 0-48-12t-39-29l-164-203q-11-13-11-22 0-20 30-20h607q23 0 48 13t40 29l164 203q10 12 10 22z m-637 90h429v90q0 22-16 38t-38 15h-321q-23 0-38 16t-16 38v36q0 22-15 38t-38 15h-179q-22 0-38-15t-16-38v-476l143 175q25 30 65 49t78 19z m708-90q0-35-25-67l-165-203q-24-30-65-49t-78-19h-607q-51 0-88 37t-37 88v536q0 51 37 88t88 37h179q51 0 88-37t37-88v-18h303q52 0 88-37t37-88v-90h107q30 0 56-13t37-40q8-17 8-37z" horiz-adv-x="1071.4" />

<glyph glyph-name="ok-squared" unicode="&#xf14a;" d="M382 125l343 343q11 10 11 25t-11 25l-57 57q-11 11-25 11t-25-11l-261-261-118 118q-10 11-25 11t-25-11l-57-57q-10-10-10-25t10-25l200-200q11-10 25-10t25 10z m475 493v-536q0-66-47-113t-114-48h-535q-67 0-114 48t-47 113v536q0 66 47 113t114 48h535q67 0 114-48t47-113z" horiz-adv-x="857.1" />

<glyph glyph-name="youtube-play" unicode="&#xf16a;" d="M397 221l270 139-270 141v-280z m103 481q94 0 181-3t128-5l41-2q0 0 9-1t13-2 13-2 16-5 16-7 17-11 16-15q4-3 9-10t16-33 15-56q4-36 7-76t3-64v-98q1-81-10-162-4-30-14-55t-18-35l-8-9q-7-8-16-15t-17-10-16-7-16-5-13-2-13-2-9-1q-140-11-350-11-115 2-201 4t-111 4l-28 3-20 2q-20 3-30 5t-29 12-31 23q-4 3-9 10t-16 33-15 56q-4 36-7 76t-3 64v98q-1 81 10 162 4 31 14 55t18 35l8 9q8 9 16 15t17 11 16 7 16 5 13 2 13 2 9 1q140 10 350 10z" horiz-adv-x="1000" />

<glyph glyph-name="instagram" unicode="&#xf16d;" d="M571 350q0 59-41 101t-101 42-101-42-42-101 42-101 101-42 101 42 41 101z m77 0q0-91-64-156t-155-64-156 64-64 156 64 156 156 64 155-64 64-156z m61 229q0-21-15-36t-37-15-36 15-15 36 15 36 36 15 37-15 15-36z m-280 123q-4 0-43 0t-59 0-54-2-57-5-40-11q-28-11-49-32t-33-49q-6-16-10-40t-6-58-1-53 0-59 0-43 0-43 0-59 1-53 6-58 10-40q12-28 33-49t49-32q16-6 40-11t57-5 54-2 59 0 43 0 42 0 59 0 54 2 58 5 39 11q28 11 50 32t32 49q6 16 10 40t6 58 1 53 0 59 0 43 0 43 0 59-1 53-6 58-10 40q-11 28-32 49t-50 32q-16 6-39 11t-58 5-54 2-59 0-42 0z m428-352q0-128-3-177-5-116-69-180t-179-69q-50-3-177-3t-177 3q-116 6-180 69t-69 180q-3 49-3 177t3 177q5 116 69 180t180 69q49 3 177 3t177-3q116-6 179-69t69-180q3-49 3-177z" horiz-adv-x="857.1" />

<glyph glyph-name="flickr" unicode="&#xf16e;" d="M696 779q67 0 114-48t47-113v-536q0-66-47-113t-114-48h-535q-67 0-114 48t-47 113v536q0 66 47 113t114 48h535z m-306-429q0 49-35 84t-84 34-83-34-35-84 35-84 83-34 84 34 35 84z m314 0q0 49-34 84t-84 34-84-34-34-84 34-84 84-34 84 34 34 84z" horiz-adv-x="857.1" />

<glyph glyph-name="paper-plane" unicode="&#xf1d8;" d="M984 844q19-13 15-36l-142-857q-3-16-18-25-8-5-18-5-6 0-13 3l-253 104-135-165q-10-13-27-13-7 0-12 2-11 4-17 13t-7 21v195l482 590-596-516-221 91q-20 8-22 30-1 23 18 33l928 536q9 5 18 5 11 0 20-6z" horiz-adv-x="1000" />

<glyph glyph-name="pinterest" unicode="&#xf231;" d="M0 517q0 60 21 113t58 93 85 69 103 44 113 14q88 0 164-37t123-108 47-160q0-54-10-105t-34-99-56-83-80-58-106-21q-38 0-75 18t-54 49q-5-22-15-63t-14-53-11-40-15-39-17-35-26-44-35-48l-7-3-5 6q-9 88-9 105 0 51 12 115t37 161 29 113q-18 36-18 94 0 47 29 87t74 41q34 0 53-23t19-57q0-37-24-106t-25-105q0-35 25-58t61-23q31 0 57 14t44 38 31 53 21 61 11 62 4 56q0 96-61 150t-160 54q-111 0-186-72t-75-183q0-25 7-48t15-36 15-26 7-17q0-15-8-40t-21-25q-1 0-9 1-29 9-51 31t-34 53-18 60-6 60z" horiz-adv-x="714.3" />

<glyph glyph-name="vimeo-1" unicode="&#xf27d;" d="M954 561q-6-132-186-363-185-241-313-241-79 0-134 147-25 89-74 269-40 146-87 146-10 0-71-42l-43 54q13 12 60 54t73 65q87 77 134 81 53 5 85-31t46-113q24-160 37-208 30-139 66-139 29 0 86 89 57 90 61 138 8 77-61 77-31 0-67-14 67 219 256 213 140-5 132-182z" horiz-adv-x="1000" />

<glyph glyph-name="reddit" unicode="&#xf281;" d="M1000 378q0-32-16-59t-45-40q7-26 7-54 0-86-60-160t-162-117-223-42-223 42-162 117-59 160q0 26 6 53-28 13-46 41t-17 59q0 46 32 78t79 33q48 0 81-35 122 85 287 90l65 291q2 7 9 12t14 2l206-45q10 21 30 33t44 13q35 0 59-24t25-59-25-59-59-25-59 24-24 59l-186 42-58-264q167-5 289-89 33 34 80 34 46 0 79-33t32-78z m-767-111q0-35 25-59t58-25 60 25 24 59-24 59-60 24q-34 0-58-25t-25-58z m452-198q6 6 6 14t-6 15q-5 5-14 5t-14-5q-23-24-68-35t-89-11-89 11-68 35q-6 5-14 5t-14-5q-6-6-6-14t6-15q24-24 66-38t68-17 51-2 51 2 68 17 66 38z m-1 114q34 0 59 25t24 59q0 34-25 58t-58 25q-35 0-60-24t-24-59 24-59 60-25z" horiz-adv-x="1000" />

<glyph glyph-name="user-circle" unicode="&#xf2bd;" d="M850 103q-12 86-49 144t-103 66q-37-42-89-65t-109-23-109 23-89 65q-66-9-103-66t-49-144q59-84 151-133t199-49 199 49 151 133z m-136 390q0 89-62 151t-152 63-151-63-63-151 63-152 151-62 152 62 62 152z m286-143q0-102-40-194t-106-160-159-106-195-40q-102 0-194 40t-160 106-106 160-40 194 40 194 106 160 160 106 194 40 194-40 160-106 106-160 40-194z" horiz-adv-x="1000" />

<glyph glyph-name="facebook-squared" unicode="&#xf308;" d="M696 779q67 0 114-48t47-113v-536q0-66-47-113t-114-48h-104v333h111l16 129h-127v83q0 31 13 46t51 16l68 1v115q-35 5-100 5-75 0-121-44t-45-127v-95h-112v-129h112v-333h-297q-67 0-114 48t-47 113v536q0 66 47 113t114 48h535z" horiz-adv-x="857.1" />

<glyph glyph-name="linkedin-squared" unicode="&#xf30c;" d="M132 61h129v387h-129v-387z m138 507q-1 29-21 48t-51 19-53-19-21-48q0-29 20-48t52-19h0q33 0 53 19t21 48z m326-507h129v222q0 86-41 130t-107 44q-76 0-117-65h1v56h-129q2-37 0-387h129v217q0 21 4 31 8 19 25 33t41 14q65 0 65-88v-207z m261 557v-536q0-66-47-113t-114-48h-535q-67 0-114 48t-47 113v536q0 66 47 113t114 48h535q67 0 114-48t47-113z" horiz-adv-x="857.1" />

<glyph glyph-name="comment-1" unicode="&#xf4ac;" d="M0 404q0 67 27 130t75 114 114 89 145 59 166 21 166-21 146-59 113-89 76-114 26-130q0-84-42-160t-112-131-168-88-205-33q-105 0-201 31l-121-85q-67-42-94-24t-12 100l25 125q-60 55-92 122t-32 143z" horiz-adv-x="1054.7" />
</font>
</defs>
</svg>
